Торрент файл
скачать торрент магнет ссылка Добавлен: 07 авг 2012, 16:21
Размер: 1.46 ГБ
Сидеров: 596
Личеров: 12
Статус: (salma3)
Автор

СообщениеДобавлено: 07 авг 2012, 16:21 

Не в сети
Супермодератор
Аватара пользователя
Дата регистрации:
15 фев 2012, 16:44
Возраст: 27
Спасибо: 5139 / 2090
Сообщения: 17432

Страны: Россия
Жанр:драма
Год выпуска: 2012
Продолжительность: 01:23:11

Перевод: не требуеется
Cубтитры: нет

Режиссер: Авдотья Смирнова

В ролях: Анна Михалкова, Яна Троянова, Евгений Муравич, Геннадий Смирнов, Юлия Снигирь, Анна Пармас, Константин Шелестун, Любовь Аркус, Татьяна Рябоконь, Сергей Борисов...

Описание:С утра — работа в музее этнографии, вечером — новости по Рен-ТВ, по выходным — митинги и секс с бывшим мужем, научным работником среднего звена. Лиза — типичный представитель питерской интеллигенции. Вика — обычная провинциалка. Отпуск в Петербурге для нее — это водка, вечеринки и авантюры. Казалось, между ними нет ничего общего. Однако, по воле случая они встретились — и сошлись: вода и пламень, синий чулок и тусовщица, интеллигенция и народ. Лиза и Вика — две стороны одной медали по имени Россия.
«Кококо» — вечная комедия русской жизни!





Исходник: DVD5 R5
Качество: DVDRip
Формат: AVI

Видео: 720x384 (1.85:1), 25 fps, XVID ~ 2051 kbps avg, 0.297 bit/pixel
Аудио: 48 kHz, AC3, 6 ch, 448 kbps


Общее
Полное имя: Kokoko.2012.O.DVDRip_[Youtracker].avi
Формат: AVI
Формат/Информация: Audio Video Interleave
Размер файла: 1,46 Гбайт
Продолжительность: 1 ч. 23 м.
Общий поток: 2508 Кбит/сек
Программа кодирования: VirtualDubMod 1.5.10.3 | http://www.virtualdub-fr.org || (build 2550/release)
Библиотека кодирования: VirtualDubMod build 2550/release

Видео
Идентификатор: 0
Формат: MPEG-4 Visual
Профиль формата: Advanced Simple@L5
Параметр BVOP формата: 2
Параметр QPel формата: Нет
Параметр GMC формата: Без точки перехода
Параметр матрицы формата: Выборочная
Идентификатор кодека: XVID
Идентификатор кодека/Подсказка: XviD
Продолжительность: 1 ч. 23 м.
Битрейт: 2051 Кбит/сек
Ширина: 720 пикселей
Высота: 384 пикселя
Соотношение сторон: 1,85:1
Частота кадров: 25,000 кадров/сек
Цветовое пространство: YUV
Субдискретизация насыщенности: 4:2:0
Битовая глубина: 8 бит
Тип развёртки: Прогрессивная
Метод сжатия: С потерями
Бит/(Пиксели*Кадры): 0.297
Размер потока: 1,19 Гбайт (82%)
Библиотека кодирования: XviD 1.2.1 (UTC 2008-12-04)

Аудио
Идентификатор: 1
Формат: AC-3
Формат/Информация: Audio Coding 3
Расширение режима: CM (complete main)
Параметр Endianness формата: Big
Идентификатор кодека: 2000
Продолжительность: 1 ч. 23 м.
Вид битрейта: Постоянный
Битрейт: 448 Кбит/сек
Каналы: 6 каналов
Расположение каналов: Front: L C R, Side: L R, LFE
Частота: 48,0 КГц
Битовая глубина: 16 бит
Метод сжатия: С потерями
Размер потока: 267 Мбайт (18%)
Выравнивание: Разделение по промежуткам
Продолжительность промежутка: 40мс. (1,00 видеокадр)
Время предзагрузки промежутка: 500мс.







реклама партнёра


Вернуться к началу
 Профиль Отправить личное сообщение  
 
   Похожие торренты   Автор   Торрент   Размер 
В этой теме нет новых непрочитанных сообщений. Доктор [драма, 2012] DVDRip

Ανδρέας

182 | 10

1.46 ГБ

В этой теме нет новых непрочитанных сообщений. Инкассаторы [1-8 из 8] [Драма, криминал, 2012] DVDRip

iopuk60

0 | 2

4.34 ГБ

В этой теме нет новых непрочитанных сообщений. Не смешно / Not That Funny [драма, комедия, 2012] DVDRip, Mvo

salma3

137 | 3

1.37 ГБ

В этой теме нет новых непрочитанных сообщений. Ты и я навсегда / You & Me Forever [драма, 2012] DVDRip, Mvo [Лицензия]

Dracon

38 | 5

1.36 ГБ

В этой теме нет новых непрочитанных сообщений. Больше жизни / Nad zycie [драма, 2012] DVDRip, Avo

salma3

6 | 2

1.36 ГБ

В этой теме нет новых непрочитанных сообщений. Козёл отпущения / The Scapegoat [драма, 2012] DVDRip, Dvo [НТВ+]

salma3

238 | 32

1.37 ГБ

В этой теме нет новых непрочитанных сообщений. Побег / Escape [триллер, драма, 2012] DVDRip, Mvo

salma3

94 | 11

1.37 ГБ


Начать новую тему Ответить на тему  [ 1 сообщение ] 




Для Мосгорсуда, Роскомнадзора и рекламодателей:: mosgorsud-torrent[собачка]yandex.ru