Торрент файл
скачать торрент магнет ссылка Добавлен: 06 май 2012, 13:21
Размер: 2.18 ГБ
Сидеров: 146
Личеров: 9
Автор

СообщениеДобавлено: 06 май 2012, 13:21 

Не в сети
Релизёр
Дата регистрации:
02 апр 2012, 20:33
Спасибо: 361 / 0
Сообщения: 1461
Южные ночи

Формат: HDRip-AVC, MKV, H.264, AC3
Страна: Россия
Режиссер: Валентина Власова
Жанр: мелодрама, комедия
Продолжительность: 01:38:19
Год выпуска: 2012
В ролях: Ксения Роменкова, Артем Ткаченко, Алексей Колубков, Екатерина Сахарова, Артем Артемьев
Описание:
Красавица Юлия целиком сосредоточена на карьере. Ради очередного повышения она берется разрешить сложную задачу - выкупить виноградник. Помогает Юле ее жених Кирилл, однако владелец виноградника Виктор вовсе не намерен его продавать. И вот в один далеко не прекрасный день Юлия оказывается посреди южной приморской глуши, на шпильках и в деловом костюме. Но и это еще полбеды. Хозяин виноградника решает испытать на прочность городскую красотку и, притворившись "тупым мужланом", подвергает ее изощренным испытаниям.


Видео: 1280x720 (16:9), 25,000 кадр/сек, AVC (х264), , ~ 2982 Кбит/сек, 0.129 bit/pixel
Аудио: 48 kHz, AC3 Dolby Digital, 2/0 (L,R) ch, ~192 kbps
Видео
Идентификатор : 1
Формат : AVC
Формат/Информация : Advanced Video Codec
Профиль формата :
Параметр CABAC формата : Да
Параметр ReFrames формата : 8 кадров
Идентификатор кодека : V_MPEG4/ISO/AVC
Продолжительность : 1 ч. 43 м.
Битрейт : 2982 Кбит/сек
Ширина : 1280 пикселя
Высота : 720 пикселя
Соотношение сторон : 16:9
Частота кадров : 25,000 кадра/сек
Цветовое пространство : YUV
Субдискретизация насыщенности : 4:2:0
Битовая глубина : 8 бит
Тип развёртки : Прогрессивная
Бит/(Пиксели*Кадры) : 0.129
Размер потока : 1,81 Гбайт (69%)
Библиотека кодирования : x264 core 92 r1510 33d382a
Настройки программы : cabac=1 / ref=8 / deblock=1:-2:-2 / analyse=0x3:0x133 / me=umh / subme=10 / psy=1 / psy_rd=1.00:0.00 / mixed_ref=1 / me_range=48 / chroma_me=1 / trellis=2 / 8x8dct=1 / cqm=0 / deadzone=21,11 / fast_pskip=0 / chroma_qp_offset=-2 / threads=3 / sliced_threads=0 / nr=0 / decimate=1 / interlaced=0 / constrained_intra=0 / bframes=8 / b_pyramid=2 / b_adapt=2 / b_bias=0 / direct=3 / wpredb=1 / wpredp=2 / keyint=250 / keyint_min=23 / scenecut=40 / intra_refresh=0 / rc=2pass / mbtree=0 / bitrate=2000 / ratetol=1.0 / qcomp=0.60 / qpmin=10 / qpmax=51 / qpstep=4 / cplxblur=20.0 / qblur=0.5 / ip_ratio=1.40 / pb_ratio=1.30 / aq=1:1.00
Default : Нет
Forced : Нет
Аудио #1
Идентификатор : 2
Формат : AC-3
Формат/Информация : Audio Coding 3
Расширение режима : CM (complete main)
Идентификатор кодека : A_AC3
Продолжительность : 1 ч. 43 м.
Вид битрейта : Постоянный
Битрейт : 192 Кбит/сек
Каналы : 2 каналов
Расположение каналов : Front: L, R
Частота : 48,0 КГц
Битовая глубина : 16 бит
Метод сжатия : С потерями
Задержка видео : 1 с. 0 мс.
Размер потока : 285 Мбайт (14%)
Язык : Russian
Default : Нет
Forced : Нет









реклама партнёра


Вернуться к началу
 Профиль Отправить личное сообщение  
 
   Похожие торренты   Автор   Торрент   Размер 
В этой теме нет новых непрочитанных сообщений. Секс на две ночи / Two Night Stand (Макс Николс) [Мелодрама, Комедия, 2014] HDRip, Mvo [Лицензия]

Dracon

741 | 36

1.35 ГБ

В этой теме нет новых непрочитанных сообщений. Под покровом ночи / В холоде ночи / In The Cold Of The Night [Триллер, мелодрама, детектив, 1990] DVDRip, Avo

salma3

21 | 7

1.45 ГБ

В этой теме нет новых непрочитанных сообщений. Мои черничные ночи / My Blueberry Nights [драма, мелодрама, 2007] HDRip-AVC, Mvo

salma3

44 | 8

744.78 МБ

В этой теме нет новых непрочитанных сообщений. Все о дне святого Валентина / All Things Valentine [драма, мелодрама, комедия, 2016] HDTV 720p, Mvo

salma3

3 | 0

2.65 ГБ

В этой теме нет новых непрочитанных сообщений. Все о дне святого Валентина / All Things Valentine (Гари Харви / Gary Harvey) [2016г., драма, мелодрама, комедия, HDTVRip]mvo

Alfredovich

0 | 0

1.37 ГБ

В этой теме нет новых непрочитанных сообщений. Дни и ночи / Days and Nights (Кристиан Камарго) [Драма, комедия, 2013] HDRip, Mvo

Dracon

664 | 68

1.37 ГБ

В этой теме нет новых непрочитанных сообщений. Секс на две ночи / Любовь с первого взгляда / Two Night Stand [комедия, мелодрама, 2014] BDRip, Mvo

salma3

102 | 48

1.71 ГБ


Начать новую тему Ответить на тему  [ 1 сообщение ] 




Для Мосгорсуда, Роскомнадзора и рекламодателей:: mosgorsud-torrent[собачка]yandex.ru