Торрент файл
скачать торрент магнет ссылка Добавлен: 06 май 2012, 13:21
Размер: 2.19 ГБ
Сидеров: 296
Личеров: 7
Автор

СообщениеДобавлено: 06 май 2012, 13:21 

Не в сети
Релизёр
Дата регистрации:
02 апр 2012, 20:33
Спасибо: 345 / 0
Сообщения: 1461
Zолушка

Формат: HDRip-AVC, MKV, H.264, AC3
Режиссер: Сергей Иванов
Жанр: мелодрама, комедия
Продолжительность: 01:27:40
Год выпуска: 2012
В ролях: Кристина Асмус, Никита Ефремов, Артем Ткаченко, Елизавета Боярская, Нонна Гришаева, Александр Цекало, Юрий Стоянов, Сергей Бурунов, Анна Шерлинг, Маргарита Бычкова
Описание:
Героиня фильма, Маша Крапивина, — пока еще не красавица, и не то чтобы сказочная умница. Обычная девушка, рискнувшая, подобно тысячам ее сверстниц из самых разных уголков страны, покорить Москву, покинув свой родной провинциальный городок. Вечером учится, а с утра до вечера работает «на вредном производстве» — горничной в очень состоятельной семье. Крупу, конечно, не перебирает, но работы хватает: только успевай крутиться, чтобы угодить властной хозяйке и двум ее взбалмошным дочерям.
Зрителям же остается лишь с удовольствием следить за перипетиями этой старой, как мир, но ооочень современной истории и надеяться на счастливый финал, если, конечно, наша Золушка вовремя успеет разобраться, что настоящий «принц» — вовсе не тот, кого она себе нафантазировала.


Видео: 1280x688 (1.860), 25,000 кадр/сек, AVC (х264), , ~ 3200 Кбит/сек, 0.145 bit/pixel
Аудио: 48 kHz, AC3 Dolby Digital, 6 ch,(Front: L C R, Side: L R, LFE) ~384 kbps
General
Unique ID : 202563292206087980497939024646623571867 (0x98644560DE2DCAD69BACF0C47DF9AF9B)
Complete name : J:ZolushkaZolushka (2012) - 720pZolushka(2012).BDrip.720p.NOLIMITS-TEAM.mkv
Format : Matroska
Format version : Version 2
File size : 2.19 GiB
Duration : 1h 27mn
Overall bit rate : 3 581 Kbps
Encoded date : UTC 2012-04-11 13:48:33
Writing application : mkvmerge v5.5.0 ('Healer') built on Apr 6 2012 21:43:24
Writing library : libebml v1.2.3 + libmatroska v1.3.0
Video
ID : 1
Format : AVC
Format/Info : Advanced Video Codec
Format profile :
Format settings, CABAC : Yes
Format settings, ReFrames : 9 frames
Codec ID : V_MPEG4/ISO/AVC
Duration : 1h 27mn
Bit rate : 3 200 Kbps
Width : 1 280 pixels
Height : 688 pixels
Display aspect ratio : 1.860
Frame rate : 25.000 fps
Color space : YUV
Chroma subsampling : 4:2:0
Bit depth : 8 bits
Scan type : Progressive
Bits/(Pixel*Frame) : 0.145
Stream size : 1.91 GiB (87%)
Title : Zолушка (2012).BDrip.720p.NOLIMITS-TEAM
Writing library : x264 core 122 r2184 5c85e0a
Encoding settings : cabac=1 / ref=9 / deblock=1:-3:-2 / analyse=0x3:0x133 / me=umh / subme=11 / psy=1 / psy_rd=1.00:0.15 / mixed_ref=1 / me_range=32 / chroma_me=1 / trellis=2 / 8x8dct=1 / cqm=0 / deadzone=21,11 / fast_pskip=0 / chroma_qp_offset=-3 / threads=12 / sliced_threads=0 / slices=4 / nr=0 / decimate=0 / interlaced=0 / bluray_compat=0 / constrained_intra=0 / bframes=5 / b_pyramid=2 / b_adapt=2 / b_bias=0 / direct=3 / weightb=1 / open_gop=0 / weightp=2 / keyint=240 / keyint_min=24 / scenecut=40 / intra_refresh=0 / rc_lookahead=60 / rc=2pass / mbtree=1 / bitrate=3200 / ratetol=2.0 / qcomp=0.60 / qpmin=0 / qpmax=51 / qpstep=4 / cplxblur=20.0 / qblur=0.5 / ip_ratio=1.40 / aq=2:1.00
Language : English
Default : Yes
Forced : No
Audio
ID : 2
Format : AC-3
Format/Info : Audio Coding 3
Mode extension : CM (complete main)
Codec ID : A_AC3
Duration : 1h 27mn
Bit rate mode : Constant
Bit rate : 384 Kbps
Channel(s) : 6 channels
Channel positions : Front: L C R, Side: L R, LFE
Sampling rate : 48.0 KHz
Bit depth : 16 bits
Compression mode : Lossy
Stream size : 241 MiB (11%)
Title : Оригинал
Language : Russian
Default : Yes
Forced : No
Menu
00:00:00.000 : en:00:00:00.000
00:04:06.080 : en:00:04:06.080
00:14:49.440 : en:00:14:49.440
00:26:15.440 : en:00:26:15.440
00:37:19.920 : en:00:37:19.920
00:53:20.560 : en:00:53:20.560
01:05:11.880 : en:01:05:11.880
01:16:17.520 : en:01:16:17.520
01:24:51.640 : en:01:24:51.640










реклама партнёра


Вернуться к началу
 Профиль Отправить личное сообщение  
 
   Похожие торренты   Автор   Торрент   Размер 
В этой теме нет новых непрочитанных сообщений. Много шума из ничего / Much Ado About Nothing [драма, мелодрама, комедия, 2012] HDRip, Avo

salma3

23 | 3

746.71 МБ

В этой теме нет новых непрочитанных сообщений. Сын Сардара / Son of Sardaar [Мелодрама, комедия, боевик, 2012] HDRip, Mvo [SDI Media]

salma3

46 | 4

1.46 ГБ

В этой теме нет новых непрочитанных сообщений. Спит ли Долли на спине? / Sover Dolly pа ryggen? [мелодрама, комедия, 2012] HDRip, Avo

salma3

10 | 3

1.37 ГБ

В этой теме нет новых непрочитанных сообщений. Страна 03 [01-24 из 24] (Сергей Лесогоров, Мичислав Юзовский) [Мелодрама, 2012] HDTVRip

Dracon

97 | 60

15.05 ГБ

В этой теме нет новых непрочитанных сообщений. Тюльпан / Tulpan (Сергей Дворцевой) [2008, Мелодрама, комедия, DVDRip]

Nickolas3435

101 | 1

1.45 ГБ

В этой теме нет новых непрочитанных сообщений. Кулинар / KULINAR (сезон 1-2, серия 1-40 из 40) (Михаил Макаренко, Андрей Иванов) [2012- 2013, Боевик, криминал , WEBDLRip-AVC 720р] [DD5.1]

Nikolai.Baranov

15 | 14

46.84 ГБ

В этой теме нет новых непрочитанных сообщений. Жизнь только начинается [Серия 1-4 из 4] (Стас Иванов) [Комедия, 2015] SATRip

Dracon

97 | 10

2.43 ГБ


Начать новую тему Ответить на тему  [ 1 сообщение ] 




Для Мосгорсуда, Роскомнадзора и рекламодателей:: mosgorsud-torrent[собачка]yandex.ru