Торрент файл
скачать торрент магнет ссылка Добавлен: 06 май 2012, 13:20
Размер: 4.23 ГБ
Сидеров: 498
Личеров: 60
Автор

СообщениеДобавлено: 06 май 2012, 13:20 

Не в сети
Релизёр
Дата регистрации:
02 апр 2012, 20:33
Спасибо: 345 / 0
Сообщения: 1461
Кремень
Формат: SATRip-AVC, MKV, H.264, AC3
Режиссер: Владимир Епифанцев, Александр Аншютц
Жанр: боевик, криминал
Год выпуска: 2012
Продолжительность:
1 серия: 00:50:42
2 серия: 00:48:34
3 серия: 00:47:05
4 серия: 00:48:30
В ролях: Владимир Епифанцев, Павел Климов, Анастасия Веденская, Сергей Векслер, Иван Краско, Юрий Чурсин, Эдуард Федашко, Сергей Мурзин, Михаил Сидаш.
Описание: Приехав, в небольшой российский городок, чтобы навестить старого боевого товарища, майор краповых беретов Шаманов становится свидетелем страшных событий — местное население, простые люди, лишены прав, обесчещены, их достоинство растоптано. Шаманову остается либо пройти мимо, закрыв глаза, либо начать действовать, противопоставив себя порочной властной системе, годами оттачиваемой и набравшей смертельную силу

Видео: 720x576 (16:9), 25,000 fps, AVC MPEG-4 (x264) ~2870 kbps avg, 0.277 bit/pixel
Аудио: 48 kHz, AC3 , 2 ch,(Front: L R) ~192 kbps avg
Общее
Уникальный идентификатор: 216141642032325679928586053997138866066 (0xA29B5DB63BB463B283C878D28888EF92)
Полное имя: F:\TREKER\cremen_[tfile.ru]\cremen_e01_[tfile.ru].mkv
Формат: Matroska
Версия формата: Version 2
Размер файла: 1,11 Гбайт
Продолжительность: 50 м.
Общий поток: 3124 Кбит/сек
Дата кодирования: UTC 2012-05-02 12:41:09
Программа кодирования: mkvmerge v4.0.0 ('The Stars were mine') сборка от Jun6 2010 16:18:42
Библиотека кодирования: libebml v1.0.0 + libmatroska v1.0.0
Видео
Идентификатор: 1
Формат: AVC
Формат/Информация: Advanced Video Codec
Профиль формата:
Параметр CABAC формата: Нет
Параметр ReFrames формата: 1 кадр
Параметр GOP формата: M=1, N=12
Идентификатор кодека: V_MPEG4/ISO/AVC
Продолжительность: 50 м.
Битрейт: 2870 Кбит/сек
Ширина: 720 пикселей
Высота: 576 пикселей
Соотношение сторон: 16:9
Режим частоты кадров: Переменный
Частота кадров: 25,000 кадров/сек
Стандарт вещания: PAL
Цветовое пространство: YUV
Субдискретизация насыщенности: 4:2:0
Битовая глубина: 8 бит
Тип развёртки: Прогрессивная
Бит/(Пиксели*Кадры): 0.277
Размер потока: 1,02 Гбайт (92%)
Default: Нет
Forced: Нет
Аудио
Идентификатор: 2
Формат: AC-3
Формат/Информация: Audio Coding 3
Расширение режима: CM (complete main)
Параметр Endianness формата: Big
Идентификатор кодека: A_AC3
Продолжительность: 50 м.
Вид битрейта: Постоянный
Битрейт: 192 Кбит/сек
Каналы: 2 канала
Расположение каналов: Front: L R
Частота: 48,0 КГц
Битовая глубина: 16 бит
Метод сжатия: С потерями
Размер потока: 69,6 Мбайт (6%)
Default: Нет
Forced: Нет
Меню
00:00:00.000: en:Chapter 1
00:09:48.400: en:Chapter 2
00:29:48.240: en:Chapter 3
00:43:48.400: en:Chapter 4











реклама партнёра


Вернуться к началу
 Профиль Отправить личное сообщение  
 
   Похожие торренты   Автор   Торрент   Размер 
В этой теме нет новых непрочитанных сообщений. Марш-бросок: Охота на «Охотника» [серия 1-4 из 4] (Владимир Кильбург, Владимир Янковский) [криминал, 2015] SATRip

Dracon

421 | 92

2.41 ГБ

В этой теме нет новых непрочитанных сообщений. Полет аистов / Flight of the Storks [боевик, криминал, детектив, 2012] SATRip, Mvo

salma3

16 | 1

1.56 ГБ

В этой теме нет новых непрочитанных сообщений. Лик мести / El Rostro de la Venganza / 1 сезон 115 серий из 115 [боевик, триллер, криминал, 2012] SATRip, Mvo [Много ТВ]

salma3

8 | 32

61.38 ГБ

В этой теме нет новых непрочитанных сообщений. Безмолвие / Молчание / Suskunlar / 1 сезон 1-10 серии из 16 [боевик, триллер, драма, криминал, 2012] SATRip, Avo

salma3

0 | 4

10.76 ГБ

В этой теме нет новых непрочитанных сообщений. Возвращение Мухтара-2 [S09] (Владимир Златоустовский) [Детектив, криминал, 2013-2014] SATRip, WEB-DLRip, HDTVRip

Dracon

22 | 26

51.59 ГБ

В этой теме нет новых непрочитанных сообщений. Неподкупный [01-16 из 16] (Александр Даруга, Марат Ким) [Криминал, 2015] SATRip

Dracon

220 | 43

9.47 ГБ

В этой теме нет новых непрочитанных сообщений. Девяностые [01x01-24 из 24] (Алексей Козлов, Александр Устюгов) [драма, криминал, 2015] SATRip

Dracon

479 | 249

14.31 ГБ


Начать новую тему Ответить на тему  [ 1 сообщение ] 




Для Мосгорсуда, Роскомнадзора и рекламодателей:: mosgorsud-torrent[собачка]yandex.ru