Торрент файл
скачать торрент магнет ссылка Добавлен: 06 май 2012, 12:49
Размер: 2.2 ГБ
Сидеров: 530
Личеров: 58
Автор

СообщениеДобавлено: 06 май 2012, 12:49 

Не в сети
Релизёр
Дата регистрации:
02 апр 2012, 20:33
Спасибо: 361 / 0
Сообщения: 1461
Самоубийцы

Формат: HDRip-AVC, MKV, H.264, AC3
Режиссер: Егор Баранов
Жанр: комедия
Продолжительность: 01:27:40
Год выпуска: 2012
В ролях: Евгений Стычкин, Алексей Воробьев, Оксана Акиньшина, Гоша Куценко, Вилле Хаапасало, Марат Башаров, Михаил Полицеймако, Александр Стриженов, Евгений Рахманько, Даниил Меркулов
Описание:
Комедия о головокружительных приключениях трех друзей - Алексея, Толика и Марины, которые решили свести счеты с жизнью. Собрав вокруг себя неприкаянных единомышленников, новые друзья решают напоследок исполнить по последнему желанию друг друга. Это, на первый взгляд, безобидное решение превращает жизнь героев в непрерывный калейдоскоп феерических событий. Чем активнее друзья исполняют самые неожиданные желания друг друга, тем невероятнее истории, в которые они попадают.


Видео: 1280x544 (2.35:1), 25,000 кадр/сек, AVC (х264), , ~ 3150 Кбит/сек, 0.181 bit/pixel
Аудио: 48 kHz, AC3 Dolby Digital, 6 ch,(Front: L C R, Side: L R, LFE) ~384 kbps
General
Unique ID : 217735918196234719151227677914191751789 (0xA3CE699870455C12A0588EAD97F5EA6D)
Complete name : J:СамоубийцыСамоубийцы - 720pСамоубийцы(2012).BDrip.720p.NOLIMITS-TEAM.mkv
Format : Matroska
Format version : Version 2
File size : 2.20 GiB
Duration : 1h 29mn
Overall bit rate : 3 531 Kbps
Movie name : Rip by kozak (NOLIMITS-TEAM.RU)
Encoded date : UTC 2012-04-12 05:48:10
Writing application : mkvmerge v5.5.0 ('Healer') built on Apr 6 2012 21:43:24
Writing library : libebml v1.2.3 + libmatroska v1.3.0
Video
ID : 1
Format : AVC
Format/Info : Advanced Video Codec
Format profile :
Format settings, CABAC : Yes
Format settings, ReFrames : 12 frames
Codec ID : V_MPEG4/ISO/AVC
Duration : 1h 29mn
Bit rate : 3 150 Kbps
Width : 1 280 pixels
Height : 544 pixels
Display aspect ratio : 2.35:1
Original display aspect ratio : 2.35:1
Frame rate : 25.000 fps
Color space : YUV
Chroma subsampling : 4:2:0
Bit depth : 8 bits
Scan type : Progressive
Bits/(Pixel*Frame) : 0.181
Stream size : 1.92 GiB (87%)
Title : Самоубийцы(2012).BDrip.720p.NOLIMITS-TEAM
Writing library : x264 core 122 r2184 5c85e0a
Encoding settings : cabac=1 / ref=12 / deblock=1:-3:-2 / analyse=0x3:0x133 / me=umh / subme=11 / psy=1 / psy_rd=1.00:0.15 / mixed_ref=1 / me_range=32 / chroma_me=1 / trellis=2 / 8x8dct=1 / cqm=0 / deadzone=21,11 / fast_pskip=0 / chroma_qp_offset=-3 / threads=12 / sliced_threads=0 / slices=4 / nr=0 / decimate=0 / interlaced=0 / bluray_compat=0 / constrained_intra=0 / bframes=5 / b_pyramid=2 / b_adapt=2 / b_bias=0 / direct=3 / weightb=1 / open_gop=0 / weightp=2 / keyint=240 / keyint_min=24 / scenecut=40 / intra_refresh=0 / rc_lookahead=60 / rc=2pass / mbtree=1 / bitrate=3150 / ratetol=2.0 / qcomp=0.60 / qpmin=0 / qpmax=51 / qpstep=4 / cplxblur=20.0 / qblur=0.5 / ip_ratio=1.40 / aq=2:1.00
Language : English
Default : Yes
Forced : No
Audio
ID : 2
Format : AC-3
Format/Info : Audio Coding 3
Mode extension : CM (complete main)
Codec ID : A_AC3
Duration : 1h 29mn
Bit rate mode : Constant
Bit rate : 384 Kbps
Channel(s) : 6 channels
Channel positions : Front: L C R, Side: L R, LFE
Sampling rate : 48.0 KHz
Bit depth : 16 bits
Compression mode : Lossy
Stream size : 245 MiB (11%)
Title : Оригинал
Language : Russian
Default : Yes
Forced : No
Menu
00:00:00.000 : en:00:00:00.000
00:01:40.720 : en:00:01:40.720
00:08:03.280 : en:00:08:03.280
00:21:37.360 : en:00:21:37.360
00:30:47.440 : en:00:30:47.440
00:40:09.520 : en:00:40:09.520
00:51:03.280 : en:00:51:03.280
01:03:37.840 : en:01:03:37.840
01:14:58.960 : en:01:14:58.960










реклама партнёра


Вернуться к началу
 Профиль Отправить личное сообщение  
 
   Похожие торренты   Автор   Торрент   Размер 
В этой теме нет новых непрочитанных сообщений. Иерей-сан. Исповедь самурая (Егор Баранов) [боевик, драма, 2015] HDRip [Лицензия]

Dracon

1911 | 62

1.37 ГБ

В этой теме нет новых непрочитанных сообщений. Саранча (Егор Баранов) [триллер, 2013] WEB-DLRip

Dracon

19561 | 1646

1.46 ГБ

В этой теме нет новых непрочитанных сообщений. Саранча (Егор Баранов) [триллер, 2013] WEB-DL 1080p

Dracon

5858 | 674

4.35 ГБ

В этой теме нет новых непрочитанных сообщений. Фарца [01х01-08 из 08] (Егор Баранов) [драма, 2015] WEBRip

Dracon

229 | 43

5.03 ГБ

В этой теме нет новых непрочитанных сообщений. Фарца [01-06 из 08] (Егор Баранов) [Драматическая сага, 2015] HDTVRip

Dracon

192 | 128

4.31 ГБ

В этой теме нет новых непрочитанных сообщений. Фарца [01-08 из 08] (Егор Баранов) [Драматическая сага, 2015] WEB-DL 720p

Dracon

808 | 206

9.85 ГБ

В этой теме нет новых непрочитанных сообщений. Фарца [01-08 из 08] (Егор Баранов) [Драматическая сага, 2015] WEB-DL 1080p

Dracon

77 | 18

12.41 ГБ


Начать новую тему Ответить на тему  [ 1 сообщение ] 




Для Мосгорсуда, Роскомнадзора и рекламодателей:: mosgorsud-torrent[собачка]yandex.ru