Торрент файл
скачать торрент магнет ссылка Добавлен: 06 май 2012, 12:49
Размер: 2.05 ГБ
Сидеров: 186
Личеров: 28
Автор

СообщениеДобавлено: 06 май 2012, 12:49 

Не в сети
Релизёр
Дата регистрации:
02 апр 2012, 20:33
Спасибо: 361 / 0
Сообщения: 1461
Стэп бай стэп

Формат: DVDRip-AVC, MKV, H.264, AC3
Режиссер: Игорь Коробейников
Жанр: комедия
Продолжительность: 01:41:10
Год выпуска: 2011
В ролях: Анна Дарк, Максим Дрозд, Владимир Скворцов, Андрей Александрин, Эвелина Блёданс, Николай Бурлак, Юлия Беретта, Сергей Зарубин, Юрий Лагута, Олег Леушин
Описание:
Лера Ласковая, преподаватель школы искусств, отстаивая интересы студентов и коллег, вступает в неравный бой с Артемом Рудаковым, олигархом, привыкшим все подчинять своей воле и желанию. Молодая женщина, несмотря на угрозы и безнадежность ситуации, верит в справедливость и настоящие чувства. Ей удается объединить вокруг себя единомышленников и дать отпор «сильным мира сего».
Смешные и нелепые попытки Леры и её команды спасти Школу, непосредственность и наивность, вызывают у Артема Рудакова недоумение, а затем неподдельный интерес. Встретившись с Лерой, он понимает, что это та настоящая и единственная любовь, к которой он стремился всю жизнь, идя навстречу к ней шаг за шагом.


Видео: 720x400 (1,80:1); 25,000 fps; AVC (х264), ~2456 kbps; 0.341 bit/pixel
Аудио: 48 kHz, AC3 Dolby Digital, 6 ch,(Front: L C R, Side: L R, LFE) ~448 kbps
Видео
Идентификатор : 1
Формат : AVC
Формат/Информация : Advanced Video Codec
Профиль формата :
Параметр CABAC формата : Да
Параметр ReFrames формата : 12 кадров
Идентификатор кодека : V_MPEG4/ISO/AVC
Продолжительность : 1 ч. 41 м.
Битрейт : 2456 Кбит/сек
Ширина : 720 пикселя
Высота : 400 пикселей
Соотношение сторон : 1,80:1
Частота кадров : 25,000 кадра/сек
Цветовое пространство : YUV
Субдискретизация насыщенности : 4:2:0
Битовая глубина : 8 бит
Тип развёртки : Прогрессивная
Бит/(Пиксели*Кадры) : 0.341
Размер потока : 1,77 Гбайт (81%)
Библиотека кодирования : x264 core 120 r2164 da19765
Настройки программы : cabac=1 / ref=12 / deblock=1:-3:-3 / analyse=0x3:0x113 / me=umh / subme=10 / psy=1 / psy_rd=1.00:0.00 / mixed_ref=1 / me_range=48 / chroma_me=1 / trellis=2 / 8x8dct=1 / cqm=0 / deadzone=21,11 / fast_pskip=1 / chroma_qp_offset=-2 / threads=6 / sliced_threads=0 / nr=0 / decimate=1 / interlaced=0 / bluray_compat=0 / constrained_intra=0 / bframes=13 / b_pyramid=2 / b_adapt=1 / b_bias=0 / direct=3 / weightb=1 / open_gop=0 / weightp=2 / keyint=240 / keyint_min=22 / scenecut=40 / intra_refresh=0 / rc=2pass / mbtree=0 / bitrate=1617 / ratetol=1.0 / qcomp=0.60 / qpmin=10 / qpmax=51 / qpstep=4 / cplxblur=20.0 / qblur=0.5 / ip_ratio=1.40 / pb_ratio=1.30 / aq=1:1.00
Default : Да
Forced : Нет
Аудио
Идентификатор : 2
Формат : AC-3
Формат/Информация : Audio Coding 3
Расширение режима : CM (complete main)
Идентификатор кодека : A_AC3
Продолжительность : 1 ч. 41 м.
Вид битрейта : Постоянный
Битрейт : 448 Кбит/сек
Каналы : 6 каналов
Расположение каналов : Front: L C R, Side: L R, LFE
Частота : 48,0 КГц
Битовая глубина : 16 бит
Метод сжатия : С потерями
Размер потока : 368 Мбайт (17%)
Заголовок : Оригинал
Язык : Russian
Default : Да
Forced : Нет










реклама партнёра


Вернуться к началу
 Профиль Отправить личное сообщение  
 
   Похожие торренты   Автор   Торрент   Размер 
В этой теме нет новых непрочитанных сообщений. Курортный роман [01-04 из 04] (Игорь Мужжухин) [Комедия, 2015] HDTVRip

Dracon

989 | 121

2.72 ГБ

В этой теме нет новых непрочитанных сообщений. Курортный роман [Серии 1-4 из 4] (Игорь Мужжухин) [Комедия, 2015] SATRip

Dracon

0 | 0

2.63 ГБ

В этой теме нет новых непрочитанных сообщений. Курортный роман [Серии 1-2 из 4] (Игорь Мужжухин) [Комедия, 2015] SATRip

Dracon

0 | 0

1.31 ГБ

В этой теме нет новых непрочитанных сообщений. Курортный роман [Серии 1-4 из 4] (Игорь Мужжухин) [Комедия, 2015] HDTV 1080i

Dracon

9 | 0

11.72 ГБ

В этой теме нет новых непрочитанных сообщений. Перелётные пташки [2 серия из 2] (Игорь Нурисламов) [Комедия, Мелодрама, 2014] SATRip

Dracon

54 | 3

1.07 ГБ

В этой теме нет новых непрочитанных сообщений. Король комедии / The King of Comedy [драма, комедия, 1982] BDRip 1080p, Mvo+Dvo+Avo+Sub

salma3

43 | 43

11.44 ГБ

В этой теме нет новых непрочитанных сообщений. Диверсант 2: Конец войны / Серии: 1-10 из 10 (Игорь Зайцев) [2007, Военный боевик, DVDRip - AVC]

marya111

6 | 5

6.84 ГБ


Начать новую тему Ответить на тему  [ 1 сообщение ] 




Для Мосгорсуда, Роскомнадзора и рекламодателей:: mosgorsud-torrent[собачка]yandex.ru