Торрент файл
скачать торрент магнет ссылка Добавлен: 25 мар 2012, 21:47
Размер: 1.54 ГБ
Сидеров: 1028
Личеров: 40
Статус: (drink)
Автор

СообщениеДобавлено: 25 мар 2012, 21:47 

Не в сети
Супермодератор
Аватара пользователя
Дата регистрации:
11 апр 2010, 18:10
Спасибо: 5801 / 7
Сообщения: 56779

Информация о фильме
Название: Мамы
Год выхода: 2012
Жанр: мелодрама, комедия
Выпущено: Россия
Продолжительность: 01:41:14
Перевод: Оригинал [лицензия]

Режиссер: Евгений Абызов, Сарик Андреасян, Алан Бадоев

В ролях: Сергей Безруков, Дмитрий Дюжев, Михаил Пореченков, Егор Бероев, Гоша Куценко, Петр Федоров, Федор Добронравов, Иван Добронравов, Игорь Верник, Александр Олешко и др.

О фильме:
Каждый год в день 8-го марта телефонные сети России передают миллионы звонков и смс-сообщений. Трудолюбивые аналитики подсчитали, что абсолютное большинство телефонных звонков адресовано самым главным женщинам в жизни каждого человека — мамам.



Файл

Качество: DVDRip-AVC | Лицензия
Формат: AVI (XviD)
Видео: MPEG-4 AVC, 1740 Кбит/с, 1024x432
Аудио: AC3, 6 ch, 448 Кбит/с
Размер: 1.54 ГБ
Скачать: Сэмпл
Общее
Уникальный идентификатор : 188680815084352585022182887371676995252 (0x8DF29A695D4F50BB85DF757DD4EE4EB4)
Полное имя : D:Мамы.2012.x264.DVDRip.(AVC).mkv
Формат : Matroska
Версия формата : Version 1
Размер файла : 1,54 Гбайт
Продолжительность : 1 ч. 41 м.
Общий поток : 2171 Кбит/сек
Дата кодирования : UTC 2012-03-23 17:46:08
Программа кодирования : mkvmerge v2.4.0 ('Fumbling Towards Ecstasy') built on Oct 11 2008 20:13:15
Библиотека кодирования : libebml v0.7.7 + libmatroska v0.8.1

Видео
Идентификатор : 1
Формат : AVC
Формат/Информация : Advanced Video Codec
Профиль формата : High@L4.1
Параметр CABAC формата : Да
Параметр ReFrames формата : 10 кадров
Идентификатор кодека : V_MPEG4/ISO/AVC
Продолжительность : 1 ч. 41 м.
Битрейт : 1740 Кбит/сек
Ширина : 1024 пикселя
Высота : 432 пикселя
Соотношение сторон : 2,35:1
Частота кадров : 25,000 кадров/сек
Цветовое пространство : YUV
Субдискретизация насыщенности : 4:2:0
Битовая глубина : 8 бит
Тип развёртки : Прогрессивная
Бит/(Пиксели*Кадры) : 0.157
Размер потока : 1,19 Гбайт (77%)
Библиотека кодирования : x264 core 65 r999kMod cc51047
Настройки программы : cabac=1 / ref=10 / deblock=1:0:0 / analyse=0x3:0x133 / me=umh / subme=6 / psy_rd=1.0:0.0 / mixed_ref=1 / me_range=16 / chroma_me=1 / trellis=1 / 8x8dct=1 / cqm=0 / deadzone=21,11 / chroma_qp_offset=-2 / threads=4 / thread_queue=4 / nr=0 / decimate=1 / mbaff=0 / bframes=9 / b_pyramid=1 / b_adapt=1 / b_bias=0 / direct=1 / wpredb=1 / keyint=250 / keyint_min=25 / scenecut=40(pre) / rc=abr / bitrate=1740 / ratetol=1.0 / qcomp=0.60 / qpmin=10 / qpmax=51 / qpstep=4 / ip_ratio=1.40 / pb_ratio=1.30 / aq=1:1.00
Default : Да
Forced : Нет

Аудио
Идентификатор : 2
Формат : AC-3
Формат/Информация : Audio Coding 3
Расширение режима : CM (complete main)
Идентификатор кодека : A_AC3
Продолжительность : 1 ч. 41 м.
Вид битрейта : Постоянный
Битрейт : 448 Кбит/сек
Каналы : 6 каналов
Расположение каналов : Front: L C R, Side: L R, LFE
Частота : 48,0 КГц
Битовая глубина : 16 бит
Метод сжатия : С потерями
Размер потока : 324 Мбайт (21%)
Default : Да
Forced : Нет




реклама партнёра


Вернуться к началу
 Профиль Отправить личное сообщение  
 
   Похожие торренты   Автор   Торрент   Размер 
В этой теме нет новых непрочитанных сообщений. Дневник мамы первоклассника [детский, мелодрама, семейный, 2014] DVD5 [Лицензия]

Dracon

153 | 15

4.09 ГБ

В этой теме нет новых непрочитанных сообщений. Дневник мамы первоклассника [детский, мелодрама, семейный, 2014] WEBRip

Dracon

583 | 17

1.37 ГБ

В этой теме нет новых непрочитанных сообщений. Четверг, 12-e [Комедия, мелодрама, 2012] DVD5 [Лицензия]

Dracon

114 | 22

3.54 ГБ

В этой теме нет новых непрочитанных сообщений. По признакам совместимости / Jewtopia [мелодрама, комедия, 2012] WEB-DL 720p, Dub [лицензия]

Dracon

997 | 27

2.9 ГБ

В этой теме нет новых непрочитанных сообщений. По признакам совместимости / Jewtopia [комедия, мелодрама, 2012] BDRip 720p, Dub [Лицензия]

salma3

56 | 5

4.61 ГБ

В этой теме нет новых непрочитанных сообщений. Мой парень – псих / Silver Linings Playbook [драма, мелодрама, комедия, 2012] BDRip-AVC, Mvo+Sub [лицензия]

salma3

90 | 5

1.46 ГБ

В этой теме нет новых непрочитанных сообщений. Мамы 3 (Георгий Малков, Эмиль Никогосян) [Комедия, Семейный, 2014] DVB

Dracon

1493 | 170

3.15 ГБ


Начать новую тему Ответить на тему  [ 1 сообщение ] 




Для Мосгорсуда, Роскомнадзора и рекламодателей:: mosgorsud-torrent[собачка]yandex.ru