Торрент файл
скачать торрент магнет ссылка Добавлен: 01 мар 2012, 19:40
Размер: 1.82 ГБ
Сидеров: 3
Личеров: 7
Автор

СообщениеДобавлено: 01 мар 2012, 19:40 

Не в сети
Супермодератор
Аватара пользователя
Дата регистрации:
11 апр 2010, 18:10
Спасибо: 5960 / 7
Сообщения: 56765
[b]Рыжик в Зазеркалье[/b]

Формат: TVRip, AVI, XviD, MP3

Режиссер: Елена Турова

Жанр: фэнтези, детский, приключения

Продолжительность: 01:55:57

Год выпуска: 2011

В ролях: Диана Запрудская, Анна Самохавец, Павел Харланчук, Дмитрий Миллер, Дмитрий Пустильник, Олег Гарбуз, Валерий Зеленский

Описание: В сказочном королевстве Недалия злой волшебник Мортис заколдовал все зеркала. Жители Недалии не могли видеть свои отражения даже в воде, потому что сразу исчезали. Но Мортису и этого показалось мало. И зло начало проникать из сказочного в реальный мир.

Победить Мортиса не просто — его может остановить человек королевских кровей. И таким человеком оказывается 12-летняя озорная девчонка Рыжик.


Рейтинг на КиноПоиске:

Видео: 720x544 (1.32:1), 25 fps, XviD MPEG-4 ~2037 kbps avg, 0.21 bit/pixel
Аудио: 48 kHz, Microsoft MPEG, 2 ch, ~224.00 kbps avg

General
Complete name: E:\tfile\rushuk_v_zazerkale_[tfile.ru].avi
Format: AVI
Format/Info: Audio Video Interleave
File size: 1.82 GiB
Duration: 1h 55mn
Overall bit rate: 2 269 Kbps
Movie name: Рыжик в зазеркалье (Беларусьфильм)(2011)
Director: kim31
Writing application: VirtualDubMod 1.5.4.1 (build 2178/release)
Original source form/Name: Movie
Copyright: kim31
Comment: Беларусьфильм

Video
ID: 0
Format: MPEG-4 Visual
Format profile: Advanced Simple@L5
Format settings, BVOP: 1
Format settings, QPel: No
Format settings, GMC: No warppoints
Format settings, Matrix: Custom
Codec ID: XVID
Codec ID/Hint: XviD
Duration: 1h 55mn
Bit rate: 2 037 Kbps
Width: 720 pixels
Height: 544 pixels
Display aspect ratio: 4:3
Frame rate: 25.000 fps
Color space: YUV
Chroma subsampling: 4:2:0
Bit depth: 8 bits
Scan type: Progressive
Compression mode: Lossy
Bits/(Pixel*Frame): 0.208
Stream size: 1.64 GiB (90%)
Writing library: XviD 1.2.1 (UTC 2008-12-04)

Audio
ID: 1
Format: MPEG Audio
Format version: Version 1
Format profile: Layer 2
Codec ID: 50
Duration: 1h 55mn
Bit rate mode: Constant
Bit rate: 224 Kbps
Channel(s): 2 channels
Sampling rate: 48.0 KHz
Compression mode: Lossy
Stream size: 184 MiB (10%)
Alignment: Aligned on interleaves
Interleave, duration: 80 ms (2.00 video frames)
Interleave, preload duration: 504 ms













Поделиться:




реклама партнёра


Вернуться к началу
 Профиль Отправить личное сообщение  
 
   Похожие торренты   Автор   Торрент   Размер 
В этой теме нет новых непрочитанных сообщений. Алиса в Зазеркалье [Фэнтези, приключения, семейный, 2016] Blu-Ray 1080p, Dub [3D-Video] [Лицензия]

marya111

63 | 52

45.7 ГБ

В этой теме нет новых непрочитанных сообщений. Алиса в Зазеркалье / Alice Through the Looking Glass [Фэнтези, приключения, семейный, 2016] DVD5, Dub

salma3

45 | 27

4.37 ГБ

В этой теме нет новых непрочитанных сообщений. Алиса в Зазеркалье / Alice Through the Looking Glass [фэнтези, приключения, семейный, 2016] BDRip, Dub [лицензия]

salma3

1320 | 121

1.46 ГБ

В этой теме нет новых непрочитанных сообщений. Алиса в Зазеркалье / Alice Through the Looking Glass [фэнтези, приключения, семейный, 2016] BDRip-AVC, Dub [лицензия]

salma3

150 | 39

2.15 ГБ

В этой теме нет новых непрочитанных сообщений. Алиса в Зазеркалье / Alice Through the Looking Glass [фэнтези, приключения, семейный, 2016] BDRip, Dub [лицензия]

salma3

434 | 44

2.18 ГБ

В этой теме нет новых непрочитанных сообщений. Повторный Алиса в Зазеркалье / Alice Through the Looking Glass ( фэнтези, приключения, семейный, 2016) BDRip от ExKinoRay | Лицензия Данный торрент является блокированным, причина: повторный торрент

marya111

0 | 0

1.46 ГБ

В этой теме нет новых непрочитанных сообщений. Алиса в Зазеркалье / Alice Through the Looking Glass [фэнтези, приключения, семейный, 2016] BDRip 720p, Dub [лицензия]

salma3

289 | 92

7.38 ГБ


Начать новую тему Ответить на тему  [ 1 сообщение ] 




Для Мосгорсуда, Роскомнадзора и рекламодателей:: mosgorsud-torrent[собачка]yandex.ru