Торрент файл
скачать торрент магнет ссылка Добавлен: 27 фев 2012, 20:15
Размер: 1.51 ГБ
Сидеров: 21
Личеров: 7
Автор

СообщениеДобавлено: 27 фев 2012, 20:15 

Не в сети
Супермодератор
Аватара пользователя
Дата регистрации:
11 апр 2010, 18:10
Спасибо: 5799 / 7
Сообщения: 56779
Дочь якудзы



Формат: DVDRip-AVC, MKV, MPEG-4 AVC, AC3
Режиссер: Сергей Бодров, Гульшад Омарова

Жанр: комедия
Продолжительность: 01:21:51
Год выпуска: 2010

В ролях: Чика Аракава, Вадим Дорофеев, Сергей Гармаш, Наомаса Мусака, Ирина Розанова, Сергей Газаров, Владимир Ильин, Виктор Сухоруков, Виталий Хаев, Анна Михалкова

Описание: Десятилетняя Юрико — дочка влиятельного якудзы Тацио Ямада, которого боятся все, а он боится за дочь. Всегда рядом с Юрико бдительная охрана и даже в школу ее сопровождают телохранители. В один прекрасный день у Ямады случаются «временные трудности» и ради безопасности дочери он отправляет ее в Рим. Но по дороге самолет совершает вынужденную посадку на юге России. Телохранители исчезают, и Юрико остается одна в незнакомой стране. Но Юрико — дочка якудзы, она привыкла быть сильной. Она ищет выход из сложившейся ситуации, а находит непутевого парня Леху и даже спасет ему жизнь. И теперь у Лехи перед Юрико — «гири» — долг чести. И по японскому обычаю он должен служить ей всю жизнь, несмотря на трудности с законом и переводом.

Рейтинг на:

Видео: 720 x 544 (1.903), 25 fps, AVC MPEG4 ~2 139 kbps avg, 0.218 bit/pixel
Аудио: 48 kHz, AC-3, A_AC3 (L,C,R,LFE) 6 ch, ~448 kbps
General
Complete name: J:\Мои релизы\Все релизы 2\Yakudzo_[tfile.ru].mkv
Format: Matroska
File size: 1.51 GiB
Duration: 1h 21mn
Overall bit rate: 2 640 Kbps
Encoded date: UTC 2010-10-06 08:33:58
Writing application: mkvmerge v4.3.0 ('Escape from the Island') сборка от Sep5 2010 10:30:51
Writing library: libebml v1.0.0 + libmatroska v1.0.0

Video
ID: 1
Format: AVC
Format/Info: Advanced Video Codec
Format profile: High@L4.1
Format settings, CABAC: Yes
Format settings, ReFrames: 9 frames
Muxing mode: Container profile=Unknown@4.1
Codec ID: V_MPEG4/ISO/AVC
Duration: 1h 21mn
Bit rate: 2 139 Kbps
Width: 720 pixels
Height: 544 pixels
Display aspect ratio: 1.903
Frame rate: 25.000 fps
Resolution: 24 bits
Colorimetry: 4:2:0
Scan type: Progressive
Bits/(Pixel*Frame): 0.218
Stream size: 1.22 GiB (81%)
Writing library: x264 core 105 r1724 b02df7b
Encoding settings: cabac=1 / ref=9 / deblock=1:-2:-1 / analyse=0x3:0x133 / me=tesa / subme=10 / psy=1 / psy_rd=0.90:0.20 / mixed_ref=1 / me_range=24 / chroma_me=1 / trellis=2 / 8x8dct=1 / cqm=0 / deadzone=21,11 / fast_pskip=0 / chroma_qp_offset=-3 / threads=12 / sliced_threads=0 / nr=0 / decimate=1 / interlaced=0 / constrained_intra=0 / bframes=6 / b_pyramid=2 / b_adapt=1 / b_bias=0 / direct=1 / weightb=0 / open_gop=0 / weightp=2 / keyint=250 / keyint_min=25 / scenecut=40 / intra_refresh=0 / rc_lookahead=40 / rc=crf / mbtree=1 / crf=19.0 / qcomp=0.60 / qpmin=10 / qpmax=51 / qpstep=4 / vbv_maxrate=50000 / vbv_bufsize=50000 / crf_max=0.0 / ip_ratio=1.40 / aq=1:1.00 / nal_hrd=none

Audio
ID: 2
Format: AC-3
Format/Info: Audio Coding 3
Codec ID: A_AC3
Duration: 1h 21mn
Bit rate mode: Constant
Bit rate: 448 Kbps
Channel(s): 6 channels
Channel positions: Front: L C R, Surround: L R, LFE
Sampling rate: 48.0 KHz
Stream size: 262 MiB (17%)


















Поделиться:




реклама партнёра


Вернуться к началу
 Профиль Отправить личное сообщение  
 
   Похожие торренты   Автор   Торрент   Размер 
В этой теме нет новых непрочитанных сообщений. Седьмой сын / Seventh Son (Сергей Бодров) [фэнтези, приключения, 2014] Blu-ray CCE 1080p, Dub+Sub [Лицензия]

Dracon

35 | 8

40.91 ГБ

В этой теме нет новых непрочитанных сообщений. Седьмой сын / Seventh Son (Сергей Бодров) [фэнтези, приключения, 2014] HDRip, Dub [Лицензия]

Dracon

394 | 25

2.06 ГБ

В этой теме нет новых непрочитанных сообщений. Седьмой сын / Seventh Son (Сергей Бодров) [фэнтези, приключения, 2014] WEB-DLRip-AVC, Dub [iTunes]

Dracon

1304 | 35

1.86 ГБ

В этой теме нет новых непрочитанных сообщений. Седьмой сын / Seventh Son (Сергей Бодров) [фэнтези, приключения, 2014] WEB-DL 1080p, Dub [iTunes]

Dracon

118 | 10

3.64 ГБ

В этой теме нет новых непрочитанных сообщений. Седьмой сын / Seventh Son (Сергей Бодров) [фэнтези, приключения, 2014] HDRip, Dub [iTunes]

Dracon

403 | 18

1.46 ГБ

В этой теме нет новых непрочитанных сообщений. Седьмой сын / Seventh Son (Сергей Бодров) [фэнтези, приключения, 2014] HDRip-AVC, Dub+Sub [Лицензия]

Dracon

667 | 50

2 ГБ

В этой теме нет новых непрочитанных сообщений. Седьмой сын / Seventh Son (Сергей Бодров) [фэнтези, приключения, 2014] DVD9, Dub+Sub [Лицензия]

Dracon

0 | 0

5.86 ГБ


Начать новую тему Ответить на тему  [ 1 сообщение ] 




Для Мосгорсуда, Роскомнадзора и рекламодателей:: mosgorsud-torrent[собачка]yandex.ru