Торрент файл
скачать торрент магнет ссылка Добавлен: 27 фев 2012, 20:07
Размер: 1.36 ГБ
Сидеров: 20
Личеров: 5
Автор

СообщениеДобавлено: 27 фев 2012, 20:07 

Не в сети
Супермодератор
Аватара пользователя
Дата регистрации:
11 апр 2010, 18:10
Спасибо: 5803 / 7
Сообщения: 56779
На измене



Формат: DVDRip-AVC, MKV, MPEG-4 AVC, AC3
Режиссер: Александр Атанесян

Жанр: комедия
Продолжительность: 01:21:46
Год выпуска: 2010

В ролях: Эдуард Радзюкевич, Андрей Кайков, Нонна Гришаева, Евгения Трофимова, Андрей Панин, Алексей Панин, Александр Головин, Александр Олешко, Роман Костомаров, Татьяна Орлова

Описание: Кандидат в депутаты Государственной Думы от города Великие Луки Петр Соломатин прибывает в Москву на работу, однако на заседание в парламент не спешит. Вместо этого он намерен уединиться со своей секретаршей Елизаветой Кошкиной в одном из комфортабельных номеров дорогого отеля в центре столицы. Брачный танец кандидата прерывает пренеприятнейшее происшествие: на своем балконе Соломатин обнаруживает бездыханное тело неизвестного мужчины, придавленное оконной рамой. Придать инцидент огласке политик не в силах — если информация просочится в прессу, с его карьерой будет покончено. Соломатин решает спрятать тело и призывает на помощь своего верного помощника Константина Вишневского. Обстоятельства усложняются еще больше, когда выясняется, что тело принадлежит детективу, нанятому мужем Кошкиной Василием дабы застукать ее с любовником на месте преступления. В процессе раскручивания сюжета к интриге подключаются мужья, жены, матери и прочие персонажи, запутывающие действо в бесконечный клубок интриг, распутать который предстоит… внезапно воскресшему детективу…

Рейтинг на:

Видео: 720 x 432 (2.370), 25 fps, AVC, x264 MPEG-4 ~1 893 kbps avg, 0.243 bit/pixel
Аудио: 48 kHz, AC-3, 6 ch, ~ 448.00 kbps avg
General
Complete name: G:\Мои релизы\Все релизы 3\Na_izmene_[tfile.ru].mkv
Format: Matroska
File size: 1.36 GiB
Duration: 1h 21mn
Overall bit rate: 2 388 Kbps
Movie name: На измене (2010) DVDRip-AVC от FreeTorrents-UA
Encoded date: UTC 2010-11-25 04:27:03
Writing application: mkvmerge v3.4.0 ('Rapunzel') сборка от May 15 2010 09:38:20
Writing library: libebml v0.8.0 + libmatroska v0.9.0

Video
ID: 1
Format: AVC
Format/Info: Advanced Video Codec
Format profile: High@L3.0
Format settings, CABAC: Yes
Format settings, ReFrames: 4 frames
Muxing mode: Container profile=Unknown@3.0
Codec ID: V_MPEG4/ISO/AVC
Duration: 1h 21mn
Bit rate: 1 893 Kbps
Nominal bit rate: 1 943 Kbps
Width: 720 pixels
Height: 432 pixels
Display aspect ratio: 2.35
Frame rate: 25.000 fps
Resolution: 24 bits
Colorimetry: 4:2:0
Scan type: Progressive
Bits/(Pixel*Frame): 0.243
Stream size: 1.08 GiB (79%)
Title: http://freetorrents.org.ua
Writing library: x264 core 104 r1713bm c276662
Encoding settings: cabac=1 / ref=1 / deblock=1:0:0 / analyse=0x3:0x3 / me=dia / subme=1 / psy=1 / psy_rd=0.00:0.00 / mixed_ref=0 / me_range=16 / chroma_me=1 / trellis=0 / 8x8dct=1 / cqm=0 / deadzone=21,11 / fast_pskip=1 / chroma_qp_offset=0 / threads=1 / sliced_threads=0 / nr=0 / decimate=1 / interlaced=0 / constrained_intra=0 / bframes=3 / b_pyramid=2 / b_adapt=1 / b_bias=0 / direct=1 / weightb=1 / open_gop=0 / weightp=0 / keyint=250 / keyint_min=25 / scenecut=40 / intra_refresh=0 / rc=2pass / mbtree=0 / bitrate=1943 / ratetol=1.0 / qcomp=0.60 / qpmin=10 / qpmax=51 / qpstep=4 / cplxblur=20.0 / qblur=0.5 / ip_ratio=1.40 / pb_ratio=1.30 / aq=1:1.00
Language: English

Audio
ID: 2
Format: AC-3
Format/Info: Audio Coding 3
Codec ID: A_AC3
Duration: 1h 21mn
Bit rate mode: Constant
Bit rate: 448 Kbps
Channel(s): 6 channels
Channel positions: Front: L C R, Surround: L R, LFE
Sampling rate: 48.0 KHz
Stream size: 262 MiB (19%)
Title: http://freetorrents.org.ua
Language: Russian




















Поделиться:




реклама партнёра


Вернуться к началу
 Профиль Отправить личное сообщение  
 
   Похожие торренты   Автор   Торрент   Размер 
В этой теме нет новых непрочитанных сообщений. Блеф (Александр Шелл, Александр Конов) [триллер, нео-нуар, 2015] WEBRip

Dracon

1 | 1

1.37 ГБ

В этой теме нет новых непрочитанных сообщений. Недооформлен Ёлки: Трилогия (Ольга Харина, Дмитрий Киселёв, Александр Котт, Александр Баранов, Тимур Бекмамбетов, Алекса Данный торрент является блокированным, причина: недооформленный торрент

Nikolai.Baranov

2 | 1

6.91 ГБ

В этой теме нет новых непрочитанных сообщений. Это любовь [01-20 из 20] (Александр Богданенко) [комедия, 2015] SATRip

Dracon

145 | 68

6.31 ГБ

В этой теме нет новых непрочитанных сообщений. Это любовь [01-08 из 20] (Александр Богданенко) [комедия, 2015] SATRip

Dracon

В этой теме нет новых непрочитанных сообщений. Это любовь [01-20 из 20] (Александр Богданенко) [комедия, 2015] WEB-DL 1080p

Dracon

23 | 31

17.36 ГБ

В этой теме нет новых непрочитанных сообщений. Доброе имя [01-12 из 12] (Александр Аравин) [2014, Детектив, комедия, HDTVRip]

Nickolas3435

94 | 15

6.45 ГБ

В этой теме нет новых непрочитанных сообщений. Родители [01-18 из 48] (Александр Жигалкин) [Комедия, семейный, 2015] WEB-DLRip

Dracon

25 | 10

5.29 ГБ


Начать новую тему Ответить на тему  [ 1 сообщение ] 




Для Мосгорсуда, Роскомнадзора и рекламодателей:: mosgorsud-torrent[собачка]yandex.ru