Торрент файл
скачать торрент магнет ссылка Добавлен: 27 фев 2012, 20:07
Размер: 1.32 ГБ
Сидеров: 49
Личеров: 10
Автор

СообщениеДобавлено: 27 фев 2012, 20:07 

Не в сети
Супермодератор
Аватара пользователя
Дата регистрации:
11 апр 2010, 18:10
Спасибо: 5962 / 7
Сообщения: 56765
Жизнь и необычайные приключения солдата Ивана Чонкина

Формат: DVDRip, MP4, H.264 (AVC), AC3

Субтитры: Нет

Режиссер: Иржи Менцель

Жанр: комедия

Продолжительность: 01:46:13

Год выпуска: 1994

В ролях: Влaдимиp Ильин, Гeннaдий Haзapoв, Aлeкceй Жapкoв, Зинoвий Гepдт, Вaлepий Зoлoтухин, Зoя Буpяк, Ивaн Pыжoв, Taтьянa Oшуpкoвa, Гaлинa Пeтpoвa, Aлeкcaндp Moхoв, Cepгeй Cтeпaнчeнкo, Mapия Винoгpaдoвa, Taтьянa Aгaфoнoвa, Oльгa Aнoхинa, Aвaнгapд Лeoнтьeв, Cepгeй Гapмaш, Любoвь Pуднeвa, Юpий Дубpoвин

Описание:
В основе - знаменитая повесть Владимира Войновича, ставшая бестселлером на заре Перестройки, в год первой (надолго отсроченной) публикации в журнале ''Юность''. Формально фильм нашим не является: продюсером выступает англичанин, режиссером - чех, да и сама картина снята на территории Чехии. Но благодаря тому, что в большинстве ролей задействованы российские актеры, выдающемуся в прошлом чешскому режиссеру удалось избежать очевидных ''клюквенных'' деталей, чем в большинстве своем грешат импортные фильмы о России. Менцель, воспитанный на традициях романа Ярослава Гашека, интерпретировал Чонкина как русского Швейка - в стиле теплого юмора, незаметно переходящего в сарказм.


Рейтинг на:

Видео: 768x544 (1:1), 25.00fps, MPEG4 Video (H264-AVC), 1400 kbps, 0.13 bit/pixel
Аудио:
№1. Русский (по умолчанию) 48 kHz, AC3 Dolby Digital, 6 ch, 192 kbps
№2. Чешский 48 kHz, AC3 Dolby Digital, 6 ch, 192 kbps

Релиз группы:


MediaInfo: General
Complete name: C:\Закачки\Фильмы\Chonkin_[tfile.ru].mp4
Format: Matroska
File size: 1.32 GiB
Duration: 1h 46mn
Overall bit rate: 1 786 Kbps
Encoded date: UTC 2010-12-02 06:02:44
Writing application: mkvmerge v2.4.0 ('Fumbling Towards Ecstasy') built on Oct 11 2008 20:13:15
Writing library: libebml v0.7.7 + libmatroska v0.8.1

Video
ID: 1
Format: AVC
Format/Info: Advanced Video Codec
Format profile: High@L4.1
Format settings, CABAC: Yes
Format settings, ReFrames: 10 frames
Muxing mode: Container profile=Unknown@4.1
Codec ID: V_MPEG4/ISO/AVC
Duration: 1h 46mn
Bit rate: 1 400 Kbps
Width: 768 pixels
Height: 544 pixels
Display aspect ratio: 1.412
Frame rate: 25.000 fps
Color space: YUV
Chroma subsampling: 4:2:0
Bit depth: 8 bits
Scan type: Progressive
Bits/(Pixel*Frame): 0.134
Stream size: 1.01 GiB (77%)
Writing library: x264 core 65 r999kMod cc51047
Encoding settings: cabac=1 / ref=10 / deblock=1:-3:-3 / analyse=0x3:0x133 / me=umh / subme=9 / psy_rd=1.0:0.0 / mixed_ref=1 / me_range=32 / chroma_me=1 / trellis=2 / 8x8dct=1 / cqm=0 / deadzone=21,11 / chroma_qp_offset=-2 / threads=4 / thread_queue=4 / nr=0 / decimate=1 / mbaff=0 / bframes=6 / b_pyramid=1 / b_adapt=1 / b_bias=0 / direct=3 / wpredb=1 / keyint=250 / keyint_min=25 / scenecut=40(pre) / rc=2pass / bitrate=1400 / ratetol=1.0 / qcomp=0.60 / qpmin=16 / qpmax=51 / qpstep=4 / cplxblur=20.0 / qblur=0.5 / ip_ratio=1.40 / pb_ratio=1.30 / aq=1:1.00

Audio #1
ID: 2
Format: AC-3
Format/Info: Audio Coding 3
Mode extension: CM (complete main)
Codec ID: A_AC3
Duration: 1h 46mn
Bit rate mode: Constant
Bit rate: 192 Kbps
Channel(s): 2 channels
Channel positions: Front: L R
Sampling rate: 48.0 KHz
Stream size: 146 MiB (11%)
Title: Русский
Language: Russian

Audio #2
ID: 3
Format: AC-3
Format/Info: Audio Coding 3
Mode extension: CM (complete main)
Codec ID: A_AC3
Duration: 1h 46mn
Bit rate mode: Constant
Bit rate: 192 Kbps
Channel(s): 2 channels
Channel positions: Front: L R
Sampling rate: 48.0 KHz
Stream size: 146 MiB (11%)
Title: Чешский
Language: Czech











Поделиться:




реклама партнёра


Вернуться к началу
 Профиль Отправить личное сообщение  
 
   Похожие торренты   Автор   Торрент   Размер 
В этой теме нет новых непрочитанных сообщений. Конвоиры / Chasers [комедия, приключения, 1994] DVDRip-AVC, Dub

salma3

10 | 3

3.21 ГБ

В этой теме нет новых непрочитанных сообщений. Конвоиры / Chasers [комедия, приключения, 1994] WEB-DLRip, Dub

salma3

18 | 5

2.14 ГБ

В этой теме нет новых непрочитанных сообщений. Конвоиры / Chasers [комедия, приключения, 1994] WEB-DL 720p, Dub

salma3

21 | 2

3.97 ГБ

В этой теме нет новых непрочитанных сообщений. Затерянный лагерь / Camp Nowhere [комедия, приключения, 1994] BDRip 720p, Mvo

salma3

100 | 6

3.14 ГБ

В этой теме нет новых непрочитанных сообщений. Уличный боец / Street Fighter [фантастика, боевик, комедия, приключения, 1994] HDRip, Avo

salma3

22 | 4

1.46 ГБ

В этой теме нет новых непрочитанных сообщений. Двойной дракон / Double Dragon [фантастика, боевик, комедия, приключения, 1994] BDRip-AVC, Mvo

salma3

29 | 9

1.46 ГБ

В этой теме нет новых непрочитанных сообщений. Тайная жизнь домашних животных / The Secret Life of Pets [Мультфильм, комедия, приключения, семейный, 2016] DVD5, Dub

salma3

38 | 26

4.37 ГБ


Начать новую тему Ответить на тему  [ 1 сообщение ] 




Для Мосгорсуда, Роскомнадзора и рекламодателей:: mosgorsud-torrent[собачка]yandex.ru