Торрент файл
скачать торрент магнет ссылка Добавлен: 27 фев 2012, 19:50
Размер: 1.46 ГБ
Сидеров: 35
Личеров: 10
Автор

СообщениеДобавлено: 27 фев 2012, 19:50 

Не в сети
Супермодератор
Аватара пользователя
Дата регистрации:
11 апр 2010, 18:10
Спасибо: 5799 / 7
Сообщения: 56779
Новогодний детектив



Формат: DVDRip-AVC, MKV, MPEG-4 AVC, AC3
Режиссер: Алексей Бобров

Жанр: комедия
Продолжительность: 01:34:30
Год выпуска: 2010

В ролях: Сергей Маковецкий, Дарья Михайлова, Владимир Епифанцев, Римма Маркова, Александр Адабашьян, Людмила Артемьева

Описание: В предновогодней московской суете Галина случайно встречает свою первую любовь, бывшего одноклассника Эдуарда. Вспомнив прошлое, они решают встретить Новый Год вместе. Но праздничная ночь принесет много сюрпризов, ведь старые знакомые не торопятся рассказывать друг другу о переменах, произошедших с ними за все эти годы…
Эта новогодняя сказка вселяет в людей уверенность, что если не в Новогоднюю ночь, так в Новом Году они обязательно встретят свою половинку!


Рейтинг на:

Видео: 720x574 (1.784), 25 fps, AVC MPEG4 x264, High@L3.0,~1767 kbps avg, 0.167 bit/pixel
Аудио: 48 kHz, AC-3, L R, LFE , 6 ch, ~ 448 kbps

General
Complete name: G:\Мои релизы\Все релизы 7\Novogodniy_detektiv_[tfile.ru].mkv
Format: Matroska
File size: 1.46 GiB
Duration: 1h 34mn
Overall bit rate: 2 217 Kbps
Movie name: Новогодний детектив (2010) DVDRip-AVC от FireBit
Encoded date: UTC 2010-12-31 10:18:37
Writing application: mkvmerge v2.3.0 ('Freak U') built on Sep8 2008 18:32:16
Writing library: libebml v0.7.7 + libmatroska v0.8.1

Video
ID: 1
Format: AVC
Format/Info: Advanced Video Codec
Format profile: High@L3.0
Format settings, CABAC: Yes
Format settings, ReFrames: 4 frames
Muxing mode: Container profile=Unknown@3.0
Codec ID: V_MPEG4/ISO/AVC
Duration: 1h 34mn
Bit rate: 1 724 Kbps
Nominal bit rate: 1 767 Kbps
Width: 720 pixels
Height: 574 pixels
Display aspect ratio: 16/9
Frame rate: 25.000 fps
Resolution: 24 bits
Colorimetry: 4:2:0
Scan type: Progressive
Bits/(Pixel*Frame): 0.167
Stream size: 1.14 GiB (78%)
Title: http://firebit.org
Writing library: x264 core 108 r1790bm 8eaf8a6
Encoding settings: cabac=1 / ref=1 / deblock=1:0:0 / analyse=0x3:0x3 / me=dia / subme=1 / psy=1 / psy_rd=0.00:0.00 / mixed_ref=0 / me_range=16 / chroma_me=1 / trellis=0 / 8x8dct=1 / cqm=0 / deadzone=21,11 / fast_pskip=1 / chroma_qp_offset=0 / threads=1 / sliced_threads=0 / nr=0 / decimate=1 / interlaced=0 / constrained_intra=0 / bframes=3 / b_pyramid=2 / b_adapt=1 / b_bias=0 / direct=1 / weightb=1 / open_gop=0 / weightp=0 / keyint=250 / keyint_min=25 / scenecut=40 / intra_refresh=0 / rc=2pass / mbtree=0 / bitrate=1767 / ratetol=1.0 / qcomp=0.60 / qpmin=10 / qpmax=51 / qpstep=4 / cplxblur=20.0 / qblur=0.5 / ip_ratio=1.40 / pb_ratio=1.30 / aq=1:1.00
Language: Russian

Audio
ID: 2
Format: AC-3
Format/Info: Audio Coding 3
Codec ID: A_AC3
Duration: 1h 34mn
Bit rate mode: Constant
Bit rate: 448 Kbps
Channel(s): 6 channels
Channel positions: Front: L C R, Surround: L R, LFE
Sampling rate: 48.0 KHz
Stream size: 303 MiB (20%)
Title: http://firebit.org
Language: Russian

Text
ID: 3
Format: UTF-8
Codec ID: S_TEXT/UTF8
Codec ID/Info: UTF-8 Plain Text
Title: http://firebit.org
Language: English



















Поделиться:




реклама партнёра


Вернуться к началу
 Профиль Отправить личное сообщение  
 
   Похожие торренты   Автор   Торрент   Размер 
В этой теме нет новых непрочитанных сообщений. Новогодний парад звёзд & Новогодний голубой огонёк 2016 (Россия) [Поп, ТВ-Шоу, Концерт, 2015-2016] HDTVRip 1080i

Dracon

108 | 62

31.66 ГБ

В этой теме нет новых непрочитанных сообщений. Созвездие Змееносец - ученик великого сыщика Пуаро (Алексей Меняйлов) [2014, комедия, криминал, детектив, WEBRip]

vairgin

11 | 1

266.1 МБ

В этой теме нет новых непрочитанных сообщений. Новогодний отрыв / Incidencias [Комедия, 2015] WEB-DLRip, Dub

Dracon

5159 | 304

1.37 ГБ

В этой теме нет новых непрочитанных сообщений. Новогодний отрыв / Incidencias [Комедия, 2015] WEB-DL 1080p, Dub

Dracon

251 | 10

3.19 ГБ

В этой теме нет новых непрочитанных сообщений. Новогодний отрыв / Incidencias [комедия, 2015] WEB-DLRip-AVC, Dub [iTunes]

salma3

362 | 33

1.46 ГБ

В этой теме нет новых непрочитанных сообщений. Марафон для трех граций [01-04 из 04] (Алексей Праздников) [Детектив, 2015] DVB

Dracon

62 | 118

3.41 ГБ

В этой теме нет новых непрочитанных сообщений. Женщина в беде [02x01-04 из 04] (Алексей Праздников) [Детектив, 2015] WEB-DL 1080p

Dracon

14 | 5

5.23 ГБ


Начать новую тему Ответить на тему  [ 1 сообщение ] 




Для Мосгорсуда, Роскомнадзора и рекламодателей:: mosgorsud-torrent[собачка]yandex.ru