Торрент файл
скачать торрент магнет ссылка Добавлен: 27 фев 2012, 19:48
Размер: 1.37 ГБ
Сидеров: 42
Личеров: 12
Автор

СообщениеДобавлено: 27 фев 2012, 19:48 

Не в сети
Супермодератор
Аватара пользователя
Дата регистрации:
11 апр 2010, 18:10
Спасибо: 5798 / 7
Сообщения: 56779
Китайская бабушка

Формат: DVDRip-AVC, MKV, H264, AC3
Режиссер: Владимир Тумаев
Жанр: комедия, мелодрама
Продолжительность: 01:23:33
Год выпуска: 2010
В ролях: Ирина Муравьева, Нина Русланова, Александр Михайлов, Владимир Толоконников, Кира Крейлис-Петрова
Описание: Все события фильма разворачиваются в маленьком провинциальном городке, во дворе старого, давно не ремонтировавшегося дома. По сюжету герои фильма — небогатые люди, пенсионеры, живущие на одну пенсию. И все их мысли заняты тем, как выжить. Пока к одной из героинь не приезжает сестра. Она увлечена китайской культурой, изучает фэншуй, любит все эти благовония, шелка. Поселившись в доме, она переворачивает жизнь этих стариков и превращает ее в праздник.



Видео: 720x384 (1.87:5), 25 fps, AVC_(х264), High@L3.0, 2147 kbps, 0.31 bit/pixel
Аудио: 48 kHz, AC3 Dolby Digital, 2 ch, 192 kbps


Общее
Уникальный идентификатор : 193245184004710566533857743825237984287 (0x9161AB2C897308379C9250FCCA8C441F)
Полное имя : kitaiskaya_babushka_[tfile.ru].mkv
Формат : Matroska
Размер файла : 1,37 Гбайт
Продолжительность : 1 ч. 23 м.
Общий поток : 2339 Кбит/сек
Дата кодирования : UTC 2011-01-22 17:56:40
Программа кодирования : mkvmerge v4.4.0 ('Die Wiederkehr') built on Oct 31 2010 21:52:48
Библиотека кодирования : libebml v1.0.0 + libmatroska v1.0.0

Видео
Идентификатор : 1
Формат : AVC
Формат/Информация : Advanced Video Codec
Профиль формата : High@L3.0
Параметр CABAC формата : Да
Параметр ReFrames формата : 5 кадры
Идентификатор кодека : V_MPEG4/ISO/AVC
Продолжительность : 1 ч. 23 м.
Битрейт : 2146 Кбит/сек
Ширина : 720 пикс.
Высота : 384 пикс.
Соотношение сторон : 1,875
Частота кадров : 25,000 кадр/сек
Цветовое пространство : YUV
Подвыборка цветности : 4:2:0
Битовая глубина : 8 бит
Тип развёртки : Прогрессивная
Бит/(Пиксели*Кадры) : 0.310
Размер потока : 1,23 Гбайт (90%)
Библиотека кодирования : x264 core 112 r1867 22bfd31
Настройки программы : cabac=1 / ref=5 / deblock=1:0:0 / analyse=0x3:0x133 / me=umh / subme=7 / psy=1 / psy_rd=1.00:0.00 / mixed_ref=1 / me_range=32 / chroma_me=1 / trellis=2 / 8x8dct=1 / cqm=0 / deadzone=21,11 / fast_pskip=0 / chroma_qp_offset=-2 / threads=3 / sliced_threads=0 / nr=0 / decimate=1 / interlaced=0 / constrained_intra=0 / bframes=3 / b_pyramid=0 / b_adapt=2 / b_bias=0 / direct=3 / weightb=1 / open_gop=0 / weightp=2 / keyint=250 / keyint_min=25 / scenecut=40 / intra_refresh=0 / rc_lookahead=40 / rc=2pass / mbtree=1 / bitrate=2146 / ratetol=1.0 / qcomp=0.60 / qpmin=10 / qpmax=51 / qpstep=4 / cplxblur=20.0 / qblur=0.5 / ip_ratio=1.40 / aq=1:1.00
Язык : English

Аудио
Идентификатор : 2
Формат : AC-3
Формат/Информация : Audio Coding 3
Расширение режима : CM (complete main)
Идентификатор кодека : A_AC3
Продолжительность : 1 ч. 23 м.
Вид битрейта : Постоянный
Битрейт : 192 Кбит/сек
Канал(ы) : 2 канала(ов)
Расположение каналов : Front: L R
Частота : 48,0 КГц
Битовая глубина : 16 бит
Метод сжатия : С потерями
Размер потока : 115 Мбайт (8%)
Язык : Russian

















Поделиться:




реклама партнёра


Вернуться к началу
 Профиль Отправить личное сообщение  
 
   Похожие торренты   Автор   Торрент   Размер 
В этой теме нет новых непрочитанных сообщений. Китайская история / Qing dian da sheng [фантастика, фэнтези, боевик, драма, мелодрама, комедия, 2005] DVDRip, Mvo

salma3

6 | 2

1.87 ГБ

В этой теме нет новых непрочитанных сообщений. Китайская головоломка / Casse-tete chinois [драма, мелодрама, комедия, 2013] HDRip, Dub+Sub [лицензия]

Dracon

399 | 13

2.19 ГБ

В этой теме нет новых непрочитанных сообщений. Китайская камасутра / Chinese Kamasutra [Фэнтези, Мелодрама, Эротика, 1993] DVDRip, Dvo

salma3

0 | 0

744 МБ

В этой теме нет новых непрочитанных сообщений. Китайская головоломка / Casse-tete chinois [драма, мелодрама, комедия, 2013] BDRip 720p, Dub+Sub [лицензия]

Dracon

99 | 4

5.77 ГБ

В этой теме нет новых непрочитанных сообщений. Китайская головоломка / Casse-tete chinois [драма, мелодрама, комедия, 2013] BDRip 1080p, Dub+Sub [лицензия]

Dracon

148 | 8

8.26 ГБ

В этой теме нет новых непрочитанных сообщений. Шаолиньская бабушка / Shôrin babaa [боевик, комедия, 2008] DVDRip, Dvo

salma3

183 | 21

698.27 МБ

В этой теме нет новых непрочитанных сообщений. Китайская головоломка / Chinese puzzle (Седрик Клапиш / Cédric Klapisch) [2013г., драма, мелодрама, комедия, BDRip 720p] Dub

Alfredovich

5 | 2

4.91 ГБ


Начать новую тему Ответить на тему  [ 1 сообщение ] 




Для Мосгорсуда, Роскомнадзора и рекламодателей:: mosgorsud-torrent[собачка]yandex.ru