Торрент файл
скачать торрент магнет ссылка Добавлен: 27 фев 2012, 19:42
Размер: 1.45 ГБ
Сидеров: 223
Личеров: 8
Автор

СообщениеДобавлено: 27 фев 2012, 19:42 

Не в сети
Супермодератор
Аватара пользователя
Дата регистрации:
11 апр 2010, 18:10
Спасибо: 5801 / 7
Сообщения: 56779
Любовь-морковь 3


Формат: DVDRip-AVC, MKV, H264, AC3
Режиссер: Сергей Гинзбург
Жанр: комедия
Продолжительность: 01:33:41
Год выпуска: 2011

В ролях: Кристина Орбакайте, Гоша Куценко, Денис Парамонов, Алина Булынко, Лия Ахеджакова, Владимир Меньшов, Вячеслав Манучаров, Михаил Козаков, Андрей Ургант, Людмила Гаврилова

Описание: В семье Голубевых — опять стихийное бедствие. Без предупреждения к ним нагрянула теща — утонченная любительница музыки и поэзии. А за ней свекор — бравый полковник, простой как Устав Вооруженных сил. Хотя со времени свадьбы прошло почти пятнадцать лет, мама Марины по-прежнему недолюбливает Андрея, а отец Андрея даже не скрывает, что мечтал о другой невестке. А уж когда старики сталкиваются друг с другом — это гром и молния! И как всегда, в самый сложный момент на пороге появляется профессор Коган, специалист по решению семейных проблем.



Видео: 1024x432 (2.35:1)@720х432 (1.66:6), 25,000 кадр/сек, AVC_H264, High@L3.0, 1774 Кбит/сек, 0.228 bit/pixel
Аудио: 48 kHz, AC3 Dolby Digital, 6 ch (L,C,R,l,r) + LFE, ~448.00 kbps

Сэмпл


Общее
Уникальный идентификатор : 188962800716408939994548799561341213715 (0x8E28E9606B7ED7FFA129311019CA1C13)
Полное имя : E:\торенты\Lybov.morkov.3.2011.x264.DVDRip(AVC).mkv
Формат : Matroska
Размер файла : 1,45 Гбайт
Продолжительность : 1 ч. 33 м.
Общий поток : 2223 Кбит/сек
Название фильма : -=POTROKS=-
Дата кодирования : UTC 2011-03-26 04:50:55
Программа кодирования : mkvmerge v4.6.0 ('Still Crazy After All These Years') сборка от Mar 10 2011 02:50:32
Библиотека кодирования : libebml v1.2.0 + libmatroska v1.1.0

Видео
Идентификатор : 1
Формат : AVC
Формат/Информация : Advanced Video Codec
Профиль формата : High@L3.0
Параметр CABAC формата : Да
Параметр ReFrames формата : 5 кадры
Режим смешивания : Header stripping
Идентификатор кодека : V_MPEG4/ISO/AVC
Продолжительность : 1 ч. 33 м.
Битрейт : 1774 Кбит/сек
Ширина : 720 пикс.
Высота : 432 пикс.
Соотношение сторон : 2,35:1
Соотношение сторон в оригинале : 2,35:1
Частота кадров : 25,000 кадр/сек
Цветовое пространство : YUV
Подвыборка цветности : 4:2:0
Битовая глубина : 8 бит
Тип развёртки : Прогрессивная
Бит/(Пиксели*Кадры) : 0.228
Размер потока : 1,13 Гбайт (78%)
Библиотека кодирования : x264 core 112 r1834 a51816a
Настройки программы : cabac=1 / ref=5 / deblock=1:-1:-1 / analyse=0x3:0x113 / me=umh / subme=8 / psy=1 / psy_rd=1.00:0.10 / mixed_ref=1 / me_range=16 / chroma_me=1 / trellis=1 / 8x8dct=1 / cqm=0 / deadzone=21,11 / fast_pskip=1 / chroma_qp_offset=-3 / threads=6 / sliced_threads=0 / nr=0 / decimate=1 / interlaced=0 / constrained_intra=0 / bframes=3 / b_pyramid=2 / b_adapt=2 / b_bias=0 / direct=3 / weightb=1 / open_gop=0 / weightp=2 / keyint=250 / keyint_min=25 / scenecut=40 / intra_refresh=0 / rc_lookahead=50 / rc=2pass / mbtree=1 / bitrate=1774 / ratetol=1.0 / qcomp=0.60 / qpmin=0 / qpmax=51 / qpstep=4 / cplxblur=20.0 / qblur=0.5 / ip_ratio=1.40 / aq=1:1.00

Аудио
Идентификатор : 2
Формат : AC-3
Формат/Информация : Audio Coding 3
Расширение режима : CM (complete main)
Режим смешивания : Header stripping
Идентификатор кодека : A_AC3
Продолжительность : 1 ч. 33 м.
Вид битрейта : Постоянный
Битрейт : 448 Кбит/сек
Канал(ы) : 6 канала(ов)
Расположение каналов : Front: L C R, Side: L R, LFE
Частота : 48,0 КГц
Битовая глубина : 16 бит
Метод сжатия : С потерями
Размер потока : 300 Мбайт (20%)






Поделиться:




реклама партнёра


Вернуться к началу
 Профиль Отправить личное сообщение  
 
   Похожие торренты   Автор   Торрент   Размер 
В этой теме нет новых непрочитанных сообщений. Волчье солнце [01-12 из 12] (Сергей Гинзбург) [2014, Приключенческая драма, SATRip]

Nickolas3435

1001 | 137

7.04 ГБ

В этой теме нет новых непрочитанных сообщений. Все в порядке, это любовь / Просто это любовь / Ничего страшного, это любовь / It's Okay It's Love [01-16 из 16](Ким Кю Тхэ)[2014, мелодрама, романтика, комедия, психология, HDTVRip 720р]

Nickolas3435

9 | 5

18.51 ГБ

В этой теме нет новых непрочитанных сообщений. Любовь повсюду / Engeyum Kadhal [Комедия, романтика, 2011] DVDRip, Mvo+Sub

salma3

21 | 7

1.46 ГБ

В этой теме нет новых непрочитанных сообщений. Любовь по рецепту и без / Любовь, секс и химия / Better Living Through Chemistry [комедия, драма, 2014] DVD5, Dub [Лицензия]

Dracon

26 | 2

4.17 ГБ

В этой теме нет новых непрочитанных сообщений. Любовь по рецепту и без / Любовь, секс и химия / Better Living Through Chemistry [комедия, драма, 2014] HDRip, dub [Чистый звук]

Dracon

114 | 3

1.45 ГБ

В этой теме нет новых непрочитанных сообщений. Храни её, любовь (Сергей Винокуров) [Мелодрама, криминал, 2014] HDTVRip

Dracon

524 | 21

1.46 ГБ

В этой теме нет новых непрочитанных сообщений. Любовь на четырех колесах (Сергей Влади) [мелодрама, 2015] SATRip

Dracon

209 | 4

1.32 ГБ


Начать новую тему Ответить на тему  [ 1 сообщение ] 




Для Мосгорсуда, Роскомнадзора и рекламодателей:: mosgorsud-torrent[собачка]yandex.ru