Торрент файл
скачать торрент магнет ссылка Добавлен: 27 фев 2012, 19:30
Размер: 1.45 ГБ
Сидеров: 636
Личеров: 27
Автор

СообщениеДобавлено: 27 фев 2012, 19:30 

Не в сети
Супермодератор
Аватара пользователя
Дата регистрации:
11 апр 2010, 18:10
Спасибо: 5802 / 7
Сообщения: 56779
All inclusive, или Всё включено


Формат: DVDRip-AVC, MKV, H.264, AC3
Режиссер: Эдуард Радзюкевич
Жанр: комедия
Продолжительность: 01:32:39
Год выпуска: 2011

В ролях: Михаил Беспалов, Федор Добронравов, Роман Мадянов, Эдуард Радзюкевич, Андрей Кайков, Григорий Сиятвинда, Нонна Гришаева, Анна Ардова, Марина Александрова, Мирослава Карпович

Описание: Жизнь Андрея — владельца дорогой и востребованной ветеринарной клиники для домашних животных с Рублевки — определенно удалась. Мало того, он не обделен вниманием и прекрасных хозяек милых зверюшек. Но страстная ночь с женой олигарха Эвелиной меняет все: ревнивый муж Эдик очень доходчиво объясняет, что изменит сладкую жизнь успешного бизнесмена. Единственный выход — это побег из страны. И Андрей уезжает в Турцию по программе «Все включено», не подозревая, что в нее включено намного больше, чем кажется на первый взгляд. За ним по пятам следует австрийский киллер Рудольф, а солнечные пляжи таят самое главное испытание в жизни…



Видео: 704 x 296 (2.35:1), 25.000 fps, AVC, х264, High@L4.1, ~1861 kbps avg, 0.357 bit/pixel
Аудио: 48 kHz, AC3 Dolby Digital, 3/2 (L,C,R,l,r) + LFE ch, ~384 kbps


Рип: jeenart
General
Unique ID: 197430834136530433061887941799656982294 (0x9487CBA891567348A4CCDA6C3F3A8716)
Complete name: F:\Мои релизы\Все релизы 10\vse_vklucheno_[tfile.ru].mkv
Format: Matroska
File size: 1.45 GiB
Duration: 1h 32mn
Overall bit rate: 2 246 Kbps
Encoded date: UTC 2011-07-10 01:22:00
Writing application: mkvmerge v4.6.0 ('Still Crazy After All These Years') сборка от Apr1 2011 21:01:49
Writing library: libebml v1.2.0 + libmatroska v1.1.0

Video
ID: 1
Format: AVC
Format/Info: Advanced Video Codec
Format profile: High@L4.1
Format settings, CABAC: Yes
Format settings, ReFrames: 3 frames
Codec ID: V_MPEG4/ISO/AVC
Duration: 1h 32mn
Bit rate: 1 861 Kbps
Width: 704 pixels
Height: 296 pixels
Display aspect ratio: 2.35:1
Frame rate: 25.000 fps
Color space: YUV
Chroma subsampling: 4:2:0
Bit depth: 8 bits
Scan type: Progressive
Bits/(Pixel*Frame): 0.357
Stream size: 1.18 GiB (81%)
Writing library: x264 core 115 r1937 aa21558
Encoding settings: cabac=1 / ref=3 / deblock=1:-1:-1 / analyse=0x3:0x113 / me=dia / subme=7 / psy=1 / psy_rd=1.00:0.10 / mixed_ref=1 / me_range=16 / chroma_me=1 / trellis=1 / 8x8dct=1 / cqm=0 / deadzone=21,11 / fast_pskip=1 / chroma_qp_offset=-3 / threads=6 / sliced_threads=0 / nr=0 / decimate=1 / interlaced=0 / bluray_compat=0 / constrained_intra=0 / bframes=1 / b_pyramid=0 / b_adapt=0 / b_bias=0 / direct=0 / weightb=1 / open_gop=0 / weightp=0 / keyint=250 / keyint_min=25 / scenecut=40 / intra_refresh=0 / rc_lookahead=40 / rc=2pass / mbtree=1 / bitrate=1861 / ratetol=1.0 / qcomp=0.60 / qpmin=0 / qpmax=69 / qpstep=4 / cplxblur=20.0 / qblur=0.5 / ip_ratio=1.40 / aq=1:1.00

Audio
ID: 2
Format: AC-3
Format/Info: Audio Coding 3
Mode extension: CM (complete main)
Codec ID: A_AC3
Duration: 1h 32mn
Bit rate mode: Constant
Bit rate: 384 Kbps
Channel(s): 6 channels
Channel positions: Front: L C R, Side: L R, LFE
Sampling rate: 48.0 KHz
Bit depth: 16 bits
Compression mode: Lossy
Stream size: 254 MiB (17%)
























Поделиться:




реклама партнёра


Вернуться к началу
 Профиль Отправить личное сообщение  
 
   Похожие торренты   Автор   Торрент   Размер 
В этой теме нет новых непрочитанных сообщений. Всё включено 2 [комедия, 2013] Blu-Ray [Лицензия]

Dracon

27 | 12

21.03 ГБ

В этой теме нет новых непрочитанных сообщений. Всё включено 2 [комедия, 2013] HDRip [Лицензия]

Dracon

2882 | 262

1.46 ГБ

В этой теме нет новых непрочитанных сообщений. Всё включено 2 [комедия, 2013] BDRip 720p [Лицензия]

Dracon

343 | 24

3.91 ГБ

В этой теме нет новых непрочитанных сообщений. Дабл трабл (Эдуард Оганесян) [Комедия, 2015] DVDRip [Лицензия]

Dracon

4 | 0

1.37 ГБ

В этой теме нет новых непрочитанных сообщений. Дабл трабл (Эдуард Оганесян) [Комедия, 2015] WEB-DL 720p

Dracon

209 | 7

2.58 ГБ

В этой теме нет новых непрочитанных сообщений. Дабл трабл (Эдуард Оганесян) [Комедия, 2015] WEB-DL 1080p

Dracon

942 | 18

2.83 ГБ

В этой теме нет новых непрочитанных сообщений. Неземные проделки (Эдуард Габидуллин) [2016, детский, комедия, фантастика, WEBRip]

marya111

3 | 2

1 ГБ


Начать новую тему Ответить на тему  [ 1 сообщение ] 




Для Мосгорсуда, Роскомнадзора и рекламодателей:: mosgorsud-torrent[собачка]yandex.ru