Торрент файл
скачать торрент магнет ссылка Добавлен: 27 фев 2012, 19:09
Размер: 1.37 ГБ
Сидеров: 404
Личеров: 64
Автор

СообщениеДобавлено: 27 фев 2012, 19:09 

Не в сети
Супермодератор
Аватара пользователя
Дата регистрации:
11 апр 2010, 18:10
Спасибо: 5960 / 7
Сообщения: 56765
Моя безумная семья




Формат: DVDRip-AVC, MKV, H.264, AC3

Режиссер: Ренат Давлетьяров

Жанр: комедия

Продолжительность: 01:20:27

Год выпуска: 2011

В ролях: Иван Стебунов, Аглая Шиловская, Леонид Ярмольник, Мария Шукшина, Андрей Ургант, Лариса Удовиченко, Андрей Панин, Анна Ардова, Ольга Орлова, Вячеслав Манучаров

Описание: Родителей не выбирают! Но что делать, если после знакомства с твоими домочадцами подружки уходят навсегда? А тут появляется девушка мечты и настает время знакомить ее с семьей! Главный герой находит оригинальный выход: нанимает актеров из рекламного ролика, чтобы те сыграли его семью. Однако идеальный план выходит из-под контроля, ситуация накаляется и наш герой вынужден идти на крайние меры, чтобы не потерять любимую девушку и свою семью.

Видео: 720х464@1024х464 (16:9), 25 fps, AVC (x264),High@L4.1, 1989 kbps avg, 0.238 bit/pixel

Аудио: 48 kHz, AC3 Dolby Digital, 6 ch (Front: L C R, Side: L R, LFE), 448 kbps avg



Семпл

Релиз-MAXIMENSHIK

Общее
Полное имя: F:\Moja_bezumnaja_semja_2011_DVDRip_AVC_[tfile.ru].mkv
Формат: Matroska
Версия формата: Version 2
Размер файла: 1,37 Гбайт
Продолжительность: 1 ч. 20 м.
Общий поток: 2437 Кбит/сек
Дата кодирования: UTC 2012-02-23 21:04:29
Программа кодирования: mkvmerge v5.2.1 ('A Far Off Place') built on Jan2 2012 23:21:10
Библиотека кодирования: libebml v1.2.3 + libmatroska v1.3.0

Видео
Идентификатор: 1
Формат: AVC
Формат/Информация: Advanced Video Codec
Профиль формата: High@L4.1
Параметр CABAC формата: Да
Параметр ReFrames формата: 9 кадров
Идентификатор кодека: V_MPEG4/ISO/AVC
Продолжительность: 1 ч. 20 м.
Битрейт: 1989 Кбит/сек
Ширина: 720 пикселей
Высота: 464 пикселя
Соотношение сторон: 2,2:1
Частота кадров: 25,000 кадров/сек
Цветовое пространство: YUV
Субдискретизация насыщенности: 4:2:0
Битовая глубина: 8 бит
Тип развёртки: Прогрессивная
Бит/(Пиксели*Кадры): 0.238
Размер потока: 1,09 Гбайт (80%)
Библиотека кодирования: x264 core 119 r2106 07efeb4
Настройки программы: cabac=1 / ref=9 / deblock=1:-1:-1 / analyse=0x3:0x133 / me=umh / subme=9 / psy=1 / psy_rd=1.00:0.15 / mixed_ref=1 / me_range=32 / chroma_me=1 / trellis=2 / 8x8dct=1 / cqm=0 / deadzone=21,11 / fast_pskip=0 / chroma_qp_offset=-3 / threads=12 / sliced_threads=0 / nr=0 / decimate=1 / interlaced=0 / bluray_compat=0 / constrained_intra=0 / bframes=8 / b_pyramid=2 / b_adapt=2 / b_bias=0 / direct=3 / weightb=1 / open_gop=0 / weightp=2 / keyint=250 / keyint_min=25 / scenecut=40 / intra_refresh=0 / rc_lookahead=60 / rc=2pass / mbtree=1 / bitrate=1989 / ratetol=1.0 / qcomp=0.70 / qpmin=0 / qpmax=69 / qpstep=4 / cplxblur=20.0 / qblur=0.5 / ip_ratio=1.40 / aq=1:1.00
Язык: English
Default: Да
Forced: Нет

Аудио
Идентификатор: 2
Формат: AC-3
Формат/Информация: Audio Coding 3
Расширение режима: CM (complete main)
Идентификатор кодека: A_AC3
Продолжительность: 1 ч. 20 м.
Вид битрейта: Постоянный
Битрейт: 448 Кбит/сек
Каналы: 6 каналов
Расположение каналов: Front: L C R, Side: L R, LFE
Частота: 48,0 КГц
Битовая глубина: 16 бит
Метод сжатия: С потерями
Размер потока: 258 Мбайт (18%)
Язык: Russian
Default: Да
Forced: Нет

Меню
00:00:00.000: :Chapter 01
00:05:04.480: :Chapter 02
00:08:38.840: :Chapter 03
00:12:41.360: :Chapter 04
00:16:27.600: :Chapter 05
00:20:36.440: :Chapter 06
00:25:58.240: :Chapter 07
00:29:43.640: :Chapter 08
00:36:52.440: :Chapter 09
00:45:09.760: :Chapter 10
00:51:04.360: :Chapter 11
00:57:34.760: :Chapter 12
01:01:20.320: :Chapter 13
01:04:37.800: :Chapter 14
01:09:33.200: :Chapter 15
01:13:42.920: :Chapter 16
01:20:27.000: :Chapter 17














Поделиться:




реклама партнёра


Вернуться к началу
 Профиль Отправить личное сообщение  
 
   Похожие торренты   Автор   Торрент   Размер 
В этой теме нет новых непрочитанных сообщений. Однажды (Ренат Давлетьяров) [комедия, приключения, 2015] WEB-DLRip

Dracon

8 | 0

1.37 ГБ

В этой теме нет новых непрочитанных сообщений. Однажды (Ренат Давлетьяров) [комедия, приключения, 2015] WEB-DL 720p

Dracon

14 | 0

3.14 ГБ

В этой теме нет новых непрочитанных сообщений. Чистое искусство (Ренат Давлетьяров) [2016, триллер, детектив, WEB-DLRip | iTunes]

marya111

311 | 19

1.45 ГБ

В этой теме нет новых непрочитанных сообщений. А зори здесь тихие... (Ренат Давлетьяров) [драма, военный, история, 2015] DVD5

Dracon

60 | 4

4.2 ГБ

В этой теме нет новых непрочитанных сообщений. А зори здесь тихие... (Ренат Давлетьяров) [драма, военный, история, 2015] WEB-DL 720p [iTunes]

Dracon

92 | 2

3.55 ГБ

В этой теме нет новых непрочитанных сообщений. А зори здесь тихие... (Ренат Давлетьяров) [2015, Драма, ВОВ, история, экранизация, WEB-DLRip-AVC] [iTunes]

Dracon

277 | 6

3.01 ГБ

В этой теме нет новых непрочитанных сообщений. А зори здесь тихие... (Ренат Давлетьяров) [драма, военный, история, 2015] WEB-DLRip [iTunes]

Dracon

104 | 3

1.37 ГБ


Начать новую тему Ответить на тему  [ 1 сообщение ] 




Для Мосгорсуда, Роскомнадзора и рекламодателей:: mosgorsud-torrent[собачка]yandex.ru