Торрент файл
скачать торрент магнет ссылка Добавлен: 27 фев 2012, 18:45
Размер: 2.18 ГБ
Сидеров: 49
Личеров: 15
Автор

СообщениеДобавлено: 27 фев 2012, 18:45 

Не в сети
Супермодератор
Аватара пользователя
Дата регистрации:
11 апр 2010, 18:10
Спасибо: 5960 / 7
Сообщения: 56765
Александр. Невская битва



Формат: BDRip-AVC, MKV, AVC MPEG4, AC3
Режиссер: Игорь Каленов

Жанр: драма, военный, биография, история
Продолжительность: 01:55:26
Год выпуска: 2008

В ролях: Антон Пампушный, Игорь Ботвин, Сергей Лысов, Александр Орлов, Дмитрий Быковский, Александр Быковский, Артем Осипов, Светлана Бакулина, Сергей Гамов, Егор Бакулин, Павел Трубинер

Описание: Первая половина 13 века. Новгородский князь Александр любим народом, но имеет и многих противников. Огромная армия Батыя угрожает нашествием с юга. Шведские рыцари замышляют крестовый поход на Русь, они засылают в Новгород шпиона. Боярская оппозиция готовит покушение на Александра, вынашивает предательский план сдачи города. В довершение ко всему, лучший друг князя Ратмир проникся страстью к красавице-княжне и теперь может стать для Александра опасным врагом. Князь молод, но жизнь требует от него воинской доблести, дальновидности дипломата и глубокой житейской мудрости.

Рейтинг на:

Видео: 1024 x 432 (2.370), 23.976 fps, AVC MPEG4/ISO/AVC ~2 202 kbps avg, 0.208 bit/pixel
Аудио: 48 kHz, AC-3,L R,LFE,6 ch,~ 448 kbps

General
Complete name: G:\Мои релизы\Все релизы 8\aleksandr_nevskaja_bitva_[tfile.ru].mkv
Format: Matroska
File size: 2.18 GiB
Duration: 1h 55mn
Overall bit rate: 2 709 Kbps
Movie name: Aleksandr. Nevskaya bitva (200 - fanatus (kinozal.tv)
Encoded date: UTC 2011-01-12 06:35:40
Writing application: mkvmerge v3.4.0 ('Rapunzel') сборка от May 15 2010 09:38:20
Writing library: libebml v0.8.0 + libmatroska v0.9.0

Video
ID: 1
Format: AVC
Format/Info: Advanced Video Codec
Format profile: High@L4.1
Format settings, CABAC: Yes
Format settings, ReFrames: 5 frames
Muxing mode: Container profile=Unknown@4.1
Codec ID: V_MPEG4/ISO/AVC
Duration: 1h 55mn
Bit rate: 2 202 Kbps
Nominal bit rate: 2 259 Kbps
Width: 1 024 pixels
Height: 432 pixels
Display aspect ratio: 2.35
Frame rate: 23.976 fps
Resolution: 24 bits
Colorimetry: 4:2:0
Scan type: Progressive
Bits/(Pixel*Frame): 0.208
Stream size: 1.77 GiB (81%)
Title: Aleksandr. Nevskaya bitva (200 - fanatus (kinozal.tv)
Writing library: x264 core 112 r1834 a51816a
Encoding settings: cabac=1 / ref=5 / deblock=1:-3:-3 / analyse=0x3:0x133 / me=umh / subme=9 / psy=1 / psy_rd=0.80:0.00 / mixed_ref=1 / me_range=32 / chroma_me=1 / trellis=2 / 8x8dct=1 / cqm=0 / deadzone=21,11 / fast_pskip=0 / chroma_qp_offset=-4 / threads=3 / sliced_threads=0 / nr=0 / decimate=1 / interlaced=0 / constrained_intra=0 / bframes=7 / b_pyramid=2 / b_adapt=2 / b_bias=0 / direct=3 / weightb=1 / open_gop=0 / weightp=2 / keyint=250 / keyint_min=23 / scenecut=40 / intra_refresh=0 / rc_lookahead=40 / rc=2pass / mbtree=1 / bitrate=2259 / ratetol=1.0 / qcomp=0.60 / qpmin=10 / qpmax=51 / qpstep=4 / cplxblur=20.0 / qblur=0.5 / ip_ratio=1.40 / aq=1:0.80
Language: Russian

Audio
ID: 2
Format: AC-3
Format/Info: Audio Coding 3
Codec ID: A_AC3
Duration: 1h 55mn
Bit rate mode: Constant
Bit rate: 448 Kbps
Channel(s): 6 channels
Channel positions: Front: L C R, Surround: L R, LFE
Sampling rate: 48.0 KHz
Stream size: 370 MiB (17%)
Language: Russian

Text #1
ID: 3
Format: UTF-8
Codec ID: S_TEXT/UTF8
Codec ID/Info: UTF-8 Plain Text
Language: Russian

Text #2
ID: 4
Format: UTF-8
Codec ID: S_TEXT/UTF8
Codec ID/Info: UTF-8 Plain Text
Language: Bulgarian

Text #3
ID: 5
Format: UTF-8
Codec ID: S_TEXT/UTF8
Codec ID/Info: UTF-8 Plain Text
Language: Polish

Text #4
ID: 6
Format: UTF-8
Codec ID: S_TEXT/UTF8
Codec ID/Info: UTF-8 Plain Text
Language: Spanish

Text #5
ID: 7
Format: UTF-8
Codec ID: S_TEXT/UTF8
Codec ID/Info: UTF-8 Plain Text
Language: Estonian




















Поделиться:




реклама партнёра


Вернуться к началу
 Профиль Отправить личное сообщение  
 
   Похожие торренты   Автор   Торрент   Размер 
В этой теме нет новых непрочитанных сообщений. Курская битва. Время побеждать (8 серий из 8) (Александр Беланов) [2013, документальный, история, военный, IPTVRip]

salma3

0 | 0

3.43 ГБ

В этой теме нет новых непрочитанных сообщений. Битва за тяжёлую воду / Kampen om tungtvannet [S01] (Пер-Олав Соренсен ) [драма, военный, история, 2015] BDRip 720p, Avo+Sub

Dracon

1029 | 321

16.66 ГБ

В этой теме нет новых непрочитанных сообщений. Кромвель / Cromwell [драма, военный, биография, история, 1970] BDRip, Dvo [НТВ+]

salma3

108 | 38

1.46 ГБ

В этой теме нет новых непрочитанных сообщений. Освободитель / Libertador [драма, история, военный, биография, 2013] BDRip 720p, Dvo

salma3

143 | 43

6.4 ГБ

В этой теме нет новых непрочитанных сообщений. Кромвель / Cromwell [драма, военный, биография, история, 1970] BDRip 720p, Dvo [НТВ+]

salma3

94 | 12

3.72 ГБ

В этой теме нет новых непрочитанных сообщений. Кундун / Kundun [драма, военный, биография, история, 1997] BDRip 720p, Mvo+Avo+Sub

salma3

21 | 8

6.91 ГБ

В этой теме нет новых непрочитанных сообщений. Макбет / The Tragedy of Macbeth [драма, военный, биография, история, 1971] BDRip, Mvo

salma3

21 | 1

1.45 ГБ


Начать новую тему Ответить на тему  [ 1 сообщение ] 




Для Мосгорсуда, Роскомнадзора и рекламодателей:: mosgorsud-torrent[собачка]yandex.ru