Торрент файл
скачать торрент магнет ссылка Добавлен: 27 фев 2012, 18:32
Размер: 1.46 ГБ
Сидеров: 53
Личеров: 14
Автор

СообщениеДобавлено: 27 фев 2012, 18:32 

Не в сети
Супермодератор
Аватара пользователя
Дата регистрации:
11 апр 2010, 18:10
Спасибо: 5803 / 7
Сообщения: 56779
[b]Все умрут, а я останусь[/b]


Формат: DVDRip-AVC, MKV, H.264, AC3
Субтитры:русские

Режиссер: Валерия Гай Германика

Жанр: драма

Продолжительность: 01:20:39

Год выпуска: 2008

В ролях: Полина Филоненко, Агния Кузнецова ,Ольга Шувалова, Донатас Грудович, Ольга Лапшина, Инга Стрелкова-Оболдина, Гарольд Стрелков, Максим Костромыкин, Всеволод Иванов, Алексей Багдасаров

Описание: Жизнь никогда не бывает легкой, особенно когда тебе четырнадцать лет. Но некоторым подросткам приходится иметь дело не только со своими внутренними переживаниями и комплексами и юношеским максимализмом, но и с жестокой окружающей действительностью.

Три девятиклассницы — Катя, Вика и Жанна — самые обыкновенные девчонки из спального района Москвы. В понедельник они узнают, что в субботу в школе будет дискотека, первая в новом учебном году. Всю неделю они проживают, готовясь к этому главному в их жизни событию. Но Катя нагрубила учительнице — и дискотеку могут отменить…

Всю неделю девочки пытаются найти общий язык со своими родителями, учителями, одноклассниками и в конечном счете друг с другом. Катя остается дома, а Вика и Жанна решают пойти, ведь они так долго мечтали об этом дне. Неожиданно для всех на дискотеке появляется и Катя. И этот вечер, которого они так ждали, принесет много неожиданностей, и каждую из героинь ждет еще один удар судьбы — тот самый, после которого заканчивается детство и начинается взрослая жизнь.


Рейтинг на:
________

Видео: 714x432 (16:9), 25.000 fps, AVC (х264) High@L4.1, ~ 2 392 Kbps, 0.310 bit/pixel
Аудио: 48 kHz, AC3 Dolby Digital, 2/0 (L,R) ch, ~192 kbps

Золотой орел, 2009 год
Номинации (2):
Лучший фильм
Лучшая работа звукорежиссера

Ника, 2009 год
Победитель (1):
Открытие года (Валерия Гай Германика)

Жорж, 2009 год
Номинации (1):
Лучший отечественный фильм

Каннский кинофестиваль, 2008 год
Победитель (2):
Золотая камера - особый приз
Приз Regards Jeune
*Фильм снят с минимальным применением операторских рельсов и прочего стабилизирующего камеру оборудования. По большей части камера была в руках оператора, что производит впечатление документального кино. Данное решение было принято оператором самостоятельно. Оператор самостоятельно определял, что снимать. На актрису А. Кузнецову это произвело впечатление непрофессионализма.

*Актрисы пили настоящий алкоголь.

*Драки в фильме — самые настоящие. Смягчена только самая жестокая драка, но и там были настоящие синяки.

*Сценарий фильма неоднократно менялся. В частности, изменён конец и не были сняты некоторые сцены.
General
Unique ID: 174246357413748134973214217368125393687 (0x8316A0B3DA9DFA36A58174B166A94B17)
Complete name: E:\tfile\vse_umrut_a_ya_ostanus_[tfile.ru].mkv
Format: Matroska
File size: 1.46 GiB
Duration: 1h 20mn
Overall bit rate: 2 586 Kbps
Movie name: Everybody Dies But Me (200
Encoded date: UTC 2010-06-16 22:44:59
Writing application: mkvmerge v4.0.0 ('The Stars were mine') built on Jun5 2010 17:44:09
Writing library: libebml v1.0.0 + libmatroska v1.0.0
Cover: Yes

Video
ID: 1
Format: AVC
Format/Info: Advanced Video Codec
Format profile: High@L4.1
Format settings, CABAC: Yes
Format settings, ReFrames: 9 frames
Codec ID: V_MPEG4/ISO/AVC
Duration: 1h 20mn
Bit rate: 2 392 Kbps
Width: 714 pixels
Height: 432 pixels
Display aspect ratio: 16:9
Frame rate: 25.000 fps
Color space: YUV
Chroma subsampling: 4:2:0
Bit depth: 8 bits
Scan type: Progressive
Bits/(Pixel*Frame): 0.310
Stream size: 1.32 GiB (91%)
Writing library: x264 core 98 r1643kMod 0cd5d69
Encoding settings: cabac=1 / ref=9 / deblock=1:-2:-1 / analyse=0x3:0x113 / me=umh / subme=10 / psy=1 / psy_rd=1.00:0.10 / mixed_ref=1 / me_range=18 / chroma_me=1 / trellis=2 / 8x8dct=1 / cqm=0 / deadzone=21,11 / fast_pskip=1 / chroma_qp_offset=-3 / threads=1 / sliced_threads=0 / nr=0 / decimate=1 / interlaced=0 / constrained_intra=0 / bframes=6 / b_pyramid=2 / b_adapt=2 / b_bias=0 / direct=3 / weightb=1 / weightp=2 / keyint=250 / keyint_min=25 / scenecut=40 / intra_refresh=0 / rc_lookahead=60 / rc=2pass / mbtree=1 / bitrate=2392 / ratetol=1.0 / qcomp=0.65 / qpmin=10 / qpmax=51 / qpstep=4 / cplxblur=20.0 / qblur=0.5 / vbv_maxrate=50000 / vbv_bufsize=62500 / ip_ratio=1.40 / aq=2:1.00 / nal_hrd=none
Language: English
Matrix coefficients: BT.470-6 System B, BT.470-6 System G, BT.601-6 625, BT.1358 625, BT.1700 625 PAL, BT.1700 625 SECAM, IEC 61966-2-4 601

Audio
ID: 2
Format: AC-3
Format/Info: Audio Coding 3
Mode extension: CM (complete main)
Codec ID: A_AC3
Duration: 1h 20mn
Bit rate mode: Constant
Bit rate: 192 Kbps
Channel(s): 2 channels
Channel positions: Front: L R
Sampling rate: 48.0 KHz
Bit depth: 16 bits
Compression mode: Lossy
Stream size: 111 MiB (7%)
Title: ac3 2_0ch 192Kbps 48kHz DELAY 0ms rus
Language: Russian

Text
ID: 3
Format: UTF-8
Codec ID: S_TEXT/UTF8
Codec ID/Info: UTF-8 Plain Text
Title: srt rus
Language: Russian

Menu
00:00:00.000: en:Chapter 1
00:00:10.000: en:Chapter 2
00:05:43.240: en:Chapter 3
00:12:47.880: en:Chapter 4
00:17:19.960: en:Chapter 5
00:22:30.960: en:Chapter 6
00:26:11.400: en:Chapter 7
00:27:25.800: en:Chapter 8
00:30:13.800: en:Chapter 9
00:33:15.560: en:Chapter 10
00:37:22.800: en:Chapter 11
00:44:00.400: en:Chapter 12
00:50:38.280: en:Chapter 13
00:54:12.720: en:Chapter 14
00:57:57.240: en:Chapter 15
01:01:43.560: en:Chapter 16
01:05:34.160: en:Chapter 17
01:12:35.280: en:Chapter 18
01:17:27.200: en:Chapter 19
01:20:38.000: en:Chapter 20









Поделиться:




реклама партнёра


Вернуться к началу
 Профиль Отправить личное сообщение  
 
   Похожие торренты   Автор   Торрент   Размер 
В этой теме нет новых непрочитанных сообщений. Да и да (Валерия Гай Германика) [Драма, 2014] WEB-DL 720p [iTunes]

Dracon

150 | 4

3.61 ГБ

В этой теме нет новых непрочитанных сообщений. Да и да (Валерия Гай Германика) [Драма, 2014] WEB-DL 1080p [iTunes]

Dracon

204 | 3

4.33 ГБ

В этой теме нет новых непрочитанных сообщений. Да и да (Валерия Гай Германика) [Драма, 2014] WEB-DLRip [iTunes]

Dracon

63 | 3

1.46 ГБ

В этой теме нет новых непрочитанных сообщений. Если я останусь / If I Stay [драма, 2014] Blu-Ray, Dub+Sub [Лицензия]

Dracon

22 | 9

40.09 ГБ

В этой теме нет новых непрочитанных сообщений. Если я останусь / If I Stay [драма, 2014] HDRip, Dub [Лицензия]

Dracon

232 | 21

2.14 ГБ

В этой теме нет новых непрочитанных сообщений. Если я останусь / If I Stay [драма, 2014] HDRip, Dub [iTunes]

Dracon

1301 | 41

1.37 ГБ

В этой теме нет новых непрочитанных сообщений. Если я останусь / If I Stay [драма, 2014] HDRip, Dub [iTunes]

Dracon

465 | 20

2.04 ГБ


Начать новую тему Ответить на тему  [ 1 сообщение ] 




Для Мосгорсуда, Роскомнадзора и рекламодателей:: mosgorsud-torrent[собачка]yandex.ru