Торрент файл
скачать торрент магнет ссылка Добавлен: 27 фев 2012, 18:28
Размер: 1.45 ГБ
Сидеров: 64
Личеров: 8
Автор

СообщениеДобавлено: 27 фев 2012, 18:28 

Не в сети
Супермодератор
Аватара пользователя
Дата регистрации:
11 апр 2010, 18:10
Спасибо: 5802 / 7
Сообщения: 56779
Миллион за неделю


Формат: HDTVRip-AVC, MKV, H.264, AC3
Режиссер: Игорь Корнеев
Жанр: мелодрама, комедия
Продолжительность: 01:27:36
Год выпуска: 2007

В ролях: Юрий Смирнов, Татьяна Снисаренко, Сергей Иванов, Александр Бодин и другие...

Описание: Они разошлись три года назад. За это время он стал миллионером, она безуспешно попыталась найти счастье в новом браке. Неожиданно в ее жизни вновь появляется он и опять делает ей предложение. Обескураженный отказом бывшей жены, он готов тратить свои миллионы, чтобы вернуть ее любовь…



Видео: 944 x 528 (1.80:1), 25.000 fps, AVC (х264) High@L4.1, ~ 2213 Kbps, 0.178 bit/pixel
Аудио: 48 kHz, AC3 Dolby Digital, 2/0 (L,R) ch, ~160 kbps avg


Релиз группы: R.G.NasheKino
Рип: jeenart

General
Unique ID: 214314042048719021243626725949228283507 (0xA13B621364DEBAECBD0486967D517673)
Complete name: F:\Мои релизы\Все релизы 10\Миллион за неделю. 2007.HDTVRip-AVC.H.264.AC3-R.G.NasheKino-[tfile.ru].mkv
Format: Matroska
File size: 1.45 GiB
Duration: 1h 27mn
Overall bit rate: 2 375 Kbps
Encoded date: UTC 2011-10-07 01:09:52
Writing application: mkvmerge v4.6.0 ('Still Crazy After All These Years') сборка от Apr1 2011 21:01:49
Writing library: libebml v1.2.0 + libmatroska v1.1.0

Video
ID: 1
Format: AVC
Format/Info: Advanced Video Codec
Format profile: High@L4.1
Format settings, CABAC: Yes
Format settings, ReFrames: 4 frames
Codec ID: V_MPEG4/ISO/AVC
Duration: 1h 27mn
Bit rate: 2 213 Kbps
Width: 944 pixels
Height: 528 pixels
Display aspect ratio: 16:9
Frame rate: 25.000 fps
Color space: YUV
Chroma subsampling: 4:2:0
Bit depth: 8 bits
Scan type: Progressive
Bits/(Pixel*Frame): 0.178
Stream size: 1.33 GiB (91%)
Writing library: x264 core 115 r1937 aa21558
Encoding settings: cabac=1 / ref=3 / deblock=1:-1:-1 / analyse=0x3:0x113 / me=hex / subme=7 / psy=1 / psy_rd=1.00:0.10 / mixed_ref=1 / me_range=16 / chroma_me=1 / trellis=1 / 8x8dct=1 / cqm=0 / deadzone=21,11 / fast_pskip=1 / chroma_qp_offset=-3 / threads=6 / sliced_threads=0 / nr=0 / decimate=1 / interlaced=0 / bluray_compat=0 / constrained_intra=0 / bframes=3 / b_pyramid=2 / b_adapt=1 / b_bias=0 / direct=1 / weightb=1 / open_gop=0 / weightp=2 / keyint=250 / keyint_min=25 / scenecut=40 / intra_refresh=0 / rc_lookahead=40 / rc=2pass / mbtree=1 / bitrate=2213 / ratetol=1.0 / qcomp=0.60 / qpmin=0 / qpmax=69 / qpstep=4 / cplxblur=20.0 / qblur=0.5 / ip_ratio=1.40 / aq=1:1.00

Audio
ID: 2
Format: AC-3
Format/Info: Audio Coding 3
Mode extension: CM (complete main)
Codec ID: A_AC3
Duration: 1h 27mn
Bit rate mode: Constant
Bit rate: 160 Kbps
Channel(s): 2 channels
Channel positions: Front: L R
Sampling rate: 48.0 KHz
Bit depth: 16 bits
Compression mode: Lossy
Stream size: 100 MiB (7%)

















Поделиться:




реклама партнёра


Вернуться к началу
 Профиль Отправить личное сообщение  
 
   Похожие торренты   Автор   Торрент   Размер 
В этой теме нет новых непрочитанных сообщений. Танго мотылька (Игорь Мужжухин) [Мелодрама, 2015] HDTVRip

Dracon

585 | 28

1.37 ГБ

В этой теме нет новых непрочитанных сообщений. Мезальянс [01-02 из 02] (Игорь Кечаев) [Мелодрама, 2015] HDTVRip 720p

Dracon

247 | 55

7.39 ГБ

В этой теме нет новых непрочитанных сообщений. Третья попытка (Игорь Мужжухин) [Мелодрама, 2015] HDTVRip

Dracon

1434 | 50

1.37 ГБ

В этой теме нет новых непрочитанных сообщений. Нинкина любовь (Игорь Перин) [Мелодрама, 2015] HDTVRip 720p

Dracon

244 | 9

2.43 ГБ

В этой теме нет новых непрочитанных сообщений. Третья попытка (Игорь Мужжухин) [Мелодрама, 2015] HDTVRip 720p

Dracon

414 | 11

2.43 ГБ

В этой теме нет новых непрочитанных сообщений. Курортный роман [01-04 из 04] (Игорь Мужжухин) [Комедия, 2015] HDTVRip

Dracon

989 | 121

2.72 ГБ

В этой теме нет новых непрочитанных сообщений. Как украсть миллион / How to Steal a Million [Kомедия, мелодрама, криминал, 1966] BDRip 720p, Dub+Mvo+Avo+Sub

salma3

52 | 4

5.42 ГБ


Начать новую тему Ответить на тему  [ 1 сообщение ] 




Для Мосгорсуда, Роскомнадзора и рекламодателей:: mosgorsud-torrent[собачка]yandex.ru