Торрент файл
скачать торрент магнет ссылка Добавлен: 27 фев 2012, 15:06
Размер: 2.18 ГБ
Сидеров: 134
Личеров: 63
Статус: (Dracon)
Автор

СообщениеДобавлено: 27 фев 2012, 15:06 

Не в сети
Зам. Админа
Аватара пользователя
Дата регистрации:
02 дек 2010, 12:39
Спасибо: 12461 / 214
Сообщения: 27968

Студия: Централ Партнершип, Кинокомпания CTB, Park Cinema Production
Год выхода: 2011
Жанр: Отечественный, Драма, Криминал

Режиссер: Олег Погодин

В ролях: Сергей Гармаш, Богдан Ступка, Лариса Малеванная, Владимир Епифанцев, Екатерина Редникова, Глеб Подгородинский, Игорь Савочкин, Александра Бледная, Евгения Дмитриева, Александр Назаров и др.

О фильме: В большом доме, посреди донских степей, живёт семейство Шамановых. Всё есть в этом доме, - кроме покоя, любви и взаимопонимания. Отцы конфликтуют с детьми, дети с отцами и друг с другом. Старший сын, Виктор, возвращается в отчий дом после 25-летнего отсутствия. Пока еще он не знает, что по пятам за ним идёт группа профессиональных убийц...



Релиз:

Автор рипа: agc

Продолжительность: 02:12:26
Перевод: Русский
Субтитры: нет

Формат: MKV
Кодек: MPEG-4 AVC; x264 codec
Качество: BDRip-AVC(Исходник: BDRemux)
Видео: 1034 x 440 (2,35:1); 23.976 fps; 1912 kbps; 0.175 bit/pixel
Аудио: AC3 Dolby Digital; 448 kbps; 5.1 Ch; 48 kHz |Russian|
Размер файла: 2236.96 Mb (1/2 DVD)




Сэмпл

Формат: Matroska
Версия формата: Version 2
Размер файла: 2,18 Гбайт
Продолжительность: 2 ч. 12 м.
Общий поток: 2360 Кбит/сек
Дата кодирования: UTC 2012-02-27 09:12:40
Программа кодирования: mkvmerge v4.9.1 ('Ich will') сборка от Jul 11 2011 23:53:15
Библиотека кодирования: libebml v1.2.1 + libmatroska v1.1.1

Видео
Идентификатор: 1
Формат: AVC
Формат/Информация: Advanced Video Codec
Профиль формата: High@L4.1
Параметр CABAC формата: Да
Параметр ReFrames формата: 15 кадров
Идентификатор кодека: V_MPEG4/ISO/AVC
Продолжительность: 2 ч. 12 м.
Битрейт: 1912 Кбит/сек
Ширина: 1034 пикселя
Высота: 440 пикселей
Соотношение сторон: 2,35:1
Частота кадров: 23,976 кадра/сек
Цветовое пространство: YUV
Субдискретизация насыщенности: 4:2:0
Битовая глубина: 8 бит
Тип развёртки: Прогрессивная
Бит/(Пиксели*Кадры): 0.175
Размер потока: 1,73 Гбайт (79%)
Библиотека кодирования: x264 core 120 r2164 da19765
Настройки программы: cabac=1 / ref=15 / deblock=1:-2:-1 / analyse=0x3:0x113 / me=umh / subme=9 / psy=1 / psy_rd=1.05:0.10 / mixed_ref=1 / me_range=32 / chroma_me=1 / trellis=2 / 8x8dct=1 / cqm=0 / deadzone=21,11 / fast_pskip=0 / chroma_qp_offset=-3 / threads=6 / sliced_threads=0 / nr=0 / decimate=1 / interlaced=0 / bluray_compat=0 / constrained_intra=0 / bframes=12 / b_pyramid=2 / b_adapt=2 / b_bias=0 / direct=1 / weightb=1 / open_gop=0 / weightp=2 / keyint=240 / keyint_min=23 / scenecut=40 / intra_refresh=0 / rc=2pass / mbtree=0 / bitrate=1912 / ratetol=1.0 / qcomp=0.60 / qpmin=0 / qpmax=69 / qpstep=4 / cplxblur=20.0 / qblur=0.5 / ip_ratio=1.40 / pb_ratio=1.30 / aq=1:1.00

Аудио
Идентификатор: 2
Формат: AC-3
Формат/Информация: Audio Coding 3
Расширение режима: CM (complete main)
Идентификатор кодека: A_AC3
Продолжительность: 2 ч. 12 м.
Вид битрейта: Постоянный
Битрейт: 448 Кбит/сек
Каналы: 6 каналов
Расположение каналов: Front: L C R, Side: L R, LFE
Частота: 48,0 КГц
Битовая глубина: 16 бит
Метод сжатия: С потерями
Размер потока: 424 Мбайт (19%)
Язык: Russian





реклама партнёра


Вернуться к началу
 Профиль  
 
   Похожие торренты   Автор   Торрент   Размер 
В этой теме нет новых непрочитанных сообщений. Сингам / Singham [боевик, драма, криминал, 2011] BDRip, Mvo [RedMedia]

salma3

93 | 5

2.18 ГБ

В этой теме нет новых непрочитанных сообщений. Коломбиана / Colombiana (Оливье Мегатон) [2011, боевик, триллер, драма, криминал, BDRip 720p] Dub

Nickolas3435

81 | 9

7.29 ГБ

В этой теме нет новых непрочитанных сообщений. Одинокое место для смерти / Похищенная / A Lonely Place to Die [триллер, драма, боевик, криминал, 2011] BDRip, Mvo [Лицензия]

salma3

123 | 6

1.45 ГБ

В этой теме нет новых непрочитанных сообщений. Ча-ча-ча / Cha cha cha [Триллер, драма, криминал, 2013] BDRip, avo

Dracon

481 | 31

1.1 ГБ

В этой теме нет новых непрочитанных сообщений. Стукач / The Hit [триллер, драма, криминал, 1984] BDRip, Mvo

salma3

24 | 1

1.45 ГБ

В этой теме нет новых непрочитанных сообщений. Кайф / Rush [драма, криминал, 1991] BDRip, Dub

salma3

48 | 12

1.46 ГБ

В этой теме нет новых непрочитанных сообщений. Картель / Kartellet [Драма, криминал, 2014] BDRip, avo+sub

Dracon

195 | 8

1.46 ГБ


Начать новую тему Ответить на тему  [ 1 сообщение ] 




Для Мосгорсуда, Роскомнадзора и рекламодателей:: mosgorsud-torrent[собачка]yandex.ru