Торрент файл
скачать торрент магнет ссылка Добавлен: 26 фев 2012, 23:04
Размер: 2.66 ГБ
Сидеров: 52
Личеров: 8
Автор

СообщениеДобавлено: 26 фев 2012, 23:04 

Не в сети
Супермодератор
Аватара пользователя
Дата регистрации:
11 апр 2010, 18:10
Спасибо: 5802 / 7
Сообщения: 56779
Тихая застава

Формат: HDRip-AVC, MKV, H.264, AC3 [Лицензия]
Режиссер: Сергей Маховиков
Жанр: драма, военный
Продолжительность: 01:32:09
Год выпуска: 2010
В ролях: Андрей Чадов, Сергей Селин, Игорь Савочкин, Раджаб Хусейнов, Фаридуншо Рахматуллоев, Нина Корниенко, Нино Нинидзе, Юрий Коновалов,

Описание:
Бой на 12-й пограничной заставе Московского погранотряда в Республике Таджикистан произошел во вторник 13 июля 1993 года. Афганские и таджикские боевики попытались прорваться на территорию этой страны. Российские военные 11 часов отражали атаки противника, 25 человек погибло. После этого наши отступили. Позднее в тот же день застава была отбита. По итогам боя шестеро пограничников были удостоены звания Героя Российской Федерации, в том числе четверо — посмертно.



Видео: 1024х432 (2.37:1), 23,976 fps, AVC (х264), High@L4.1, ~3500 Kbps avg, 0.330 bit/pixel
Аудио: 48.0 KHz, AC3 Dolby Digital, 6 channels (Front: L C R, Side: L R, LFE), ~384.00 kbps avg
Субтитры: английские (отключаемые)
Общее
Уникальный идентификатор: 230155353485526916067795547180395717617 (0xAD264F07DF74C47FA5A70E0C0B38E3F1)
Полное имя: D:\Video\...\Тихая_застава_[tfile.ru].mkv
Формат: Matroska
Версия формата: Version 1
Размер файла: 2,66 Гбайт
Продолжительность: 1 ч. 32 м.
Общий поток: 4138 Кбит/сек
Название фильма: Тихая застава (2010) BDRip-AVC от FireBit - firebit.org
Дата кодирования: UTC 2011-08-28 02:48:31
Программа кодирования: mkvmerge v2.3.0 ('Freak U') built on Sep8 2008 18:32:16
Библиотека кодирования: libebml v0.7.7 + libmatroska v0.8.1

Видео
Идентификатор: 1
Формат: AVC
Формат/Информация: Advanced Video Codec
Профиль формата: High@L4.1
Параметр CABAC формата: Да
Параметр ReFrames формата: 8 кадров
Идентификатор кодека: V_MPEG4/ISO/AVC
Продолжительность: 1 ч. 32 м.
Битрейт: 3500 Кбит/сек
Ширина: 1024 пикселя
Высота: 432 пикселя
Соотношение сторон: 2,35:1
Частота кадров: 23,976 кадра/сек
Цветовое пространство: YUV
Субдискретизация насыщенности: 4:2:0
Битовая глубина: 8 бит
Тип развёртки: Прогрессивная
Бит/(Пиксели*Кадры): 0.330
Размер потока: 2,20 Гбайт (83%)
Заголовок: http://firebit.org
Библиотека кодирования: x264 core 92 r1510 33d382a
Настройки программы: cabac=1 / ref=8 / deblock=1:-2:-1 / analyse=0x3:0x133 / me=umh / subme=10 / psy=1 / psy_rd=1.00:0.10 /

mixed_ref=1 / me_range=32 / chroma_me=1 / trellis=2 / 8x8dct=1 / cqm=0 / deadzone=21,11 / fast_pskip=0 / chroma_qp_offset=-3 / threads=6 /

sliced_threads=0 / nr=0 / decimate=1 / interlaced=0 / constrained_intra=0 / bframes=8 / b_pyramid=2 / b_adapt=2 / b_bias=0 / direct=3 / wpredb=1 /

wpredp=2 / keyint=250 / keyint_min=25 / scenecut=40 / intra_refresh=0 / rc_lookahead=50 / rc=2pass / mbtree=1 / bitrate=3500 / ratetol=1.0 /

qcomp=0.60 / qpmin=10 / qpmax=51 / qpstep=4 / cplxblur=20.0 / qblur=0.5 / ip_ratio=1.40 / aq=1:1.00
Язык: Russian

Аудио
Идентификатор: 2
Формат: AC-3
Формат/Информация: Audio Coding 3
Расширение режима: CM (complete main)
Идентификатор кодека: A_AC3
Продолжительность: 1 ч. 32 м.
Вид битрейта: Постоянный
Битрейт: 640 Кбит/сек
Каналы: 6 каналов
Расположение каналов: Front: L C R, Side: L R, LFE
Частота: 48,0 КГц
Битовая глубина: 16 бит
Метод сжатия: С потерями
Размер потока: 422 Мбайт (15%)
Заголовок: http://firebit.org
Язык: Russian

Текст
Идентификатор: 3
Формат: UTF-8
Идентификатор кодека: S_TEXT/UTF8
Идентификатор кодека/Информация: UTF-8 Plain Text
Заголовок: http://firebit.org
Язык: English

Меню
00:00:00.000: :Chapter 01
00:08:39.101: :Chapter 02
00:16:49.216: :Chapter 03
00:25:13.637: :Chapter 04
00:36:15.298: :Chapter 05
00:44:21.784: :Chapter 06
00:54:13.458: :Chapter 07
01:03:44.237: :Chapter 08
01:13:11.053: :Chapter 09
01:20:49.970: :Chapter 10
01:28:03.278: :Chapter 11
01:32:08.814: :Chapter 12








Поделиться:




реклама партнёра


Вернуться к началу
 Профиль Отправить личное сообщение  
 
   Похожие торренты   Автор   Торрент   Размер 
В этой теме нет новых непрочитанных сообщений. Тихая гора / The Silent Mountain [драма, мелодрама, приключения, военный, 2014] HDRip [ИндивИдуалист]

Dracon

581 | 27

1.4 ГБ

В этой теме нет новых непрочитанных сообщений. Тихая ночь / Silent night [драма, военный, биография, 2002] DVDRip, Avo

salma3

16 | 3

1.37 ГБ

В этой теме нет новых непрочитанных сообщений. Битва за Севастополь (Сергей Мокрицкий) [Военный, ВОВ, драма, реальные события, 2015] HDRip [лицензия]

Dracon

30 | 0

1.37 ГБ

В этой теме нет новых непрочитанных сообщений. Битва за Севастополь (Сергей Мокрицкий) [Военный, ВОВ, драма, реальные события, 2015] WEB-DL 1080p

Dracon

234 | 10

3.99 ГБ

В этой теме нет новых непрочитанных сообщений. Они сражались за Родину (Сергей Бондарчук) [Военный, драма, 1975] HDTVRip [Полная версия]

Dracon

82 | 1

2.73 ГБ

В этой теме нет новых непрочитанных сообщений. Битва за Севастополь (Сергей Мокрицкий) [Военный, ВОВ, драма, реальные события, 2015] WEB-DL 720p

Dracon

651 | 18

3.51 ГБ

В этой теме нет новых непрочитанных сообщений. Битва за Севастополь (Сергей Мокрицкий) [Военный, ВОВ, драма, реальные события, 2015] BDRemux 1080p

Dracon

160 | 8

20.04 ГБ


Начать новую тему Ответить на тему  [ 1 сообщение ] 




Для Мосгорсуда, Роскомнадзора и рекламодателей:: mosgorsud-torrent[собачка]yandex.ru