Торрент файл
скачать торрент магнет ссылка Добавлен: 26 фев 2012, 21:52
Размер: 3.02 ГБ
Сидеров: 129
Личеров: 23
Автор

СообщениеДобавлено: 26 фев 2012, 21:52 

Не в сети
Супермодератор
Аватара пользователя
Дата регистрации:
11 апр 2010, 18:10
Спасибо: 5799 / 7
Сообщения: 56779
[b]Брат[/b]

Формат: DVDRip-AVC, MKV, H.264, AC3

Режиссер: Алексей Балабанов

Жанр: боевик, драма, криминал

Продолжительность: 01:39:36

Год выпуска: 1997

В ролях: Сергей Бодров мл., Виктор Сухоруков, Светлана Письмиченко, Юрий Кузнецов, Вячеслав Бутусов, Ирина Ракшина, Сергей Мурзин, Анатолий Журавлев, Игорь Шибанов

Описание: Демобилизованный из армии, Данила Багров вернулся в родной городок. Но скучная жизнь российской провинции не устраивала его, и он решился податься в Петербург, где, по слухам, уже несколько лет процветает его старший брат. Данила нашел брата. Но все оказалось не так просто — брат был наемным убийцей…

_______

Видео: 1168 x 656 (16:9), 23.976 fps, AVC (х264) High@L4.1 , ~ 1 708 kbps avg, 0.093 bit/pixel
Аудио: 48 kHz, AC3 Dolby Digital, 3/2 (L,C,R,l,r) + LFE ch, ~384 kbps avg

Топ250: 121

General
Unique ID: 236521581949715029843298278722825634652 (0xB1F06653DBC869819C10A0236780435C)
Complete name: E:\tfile\brat_[tfile.ru]\Brat_1_DVDRip-AVC_[tfile.ru].mkv
Format: Matroska
File size: 1.46 GiB
Duration: 1h 39mn
Overall bit rate: 2 091 Kbps
Encoded date: UTC 2010-03-28 19:05:48
Writing application: mkvmerge v3.2.0 ('Beginnings') built on Feb 12 2010 16:46:17
Writing library: libebml v0.7.9 + libmatroska v0.8.1

Video
ID: 1
Format: AVC
Format/Info: Advanced Video Codec
Format profile: High@L4.1
Format settings, CABAC: Yes
Format settings, ReFrames: 9 frames
Codec ID: V_MPEG4/ISO/AVC
Duration: 1h 39mn
Bit rate: 1 708 Kbps
Width: 1 168 pixels
Height: 656 pixels
Display aspect ratio: 16:9
Frame rate: 23.976 fps
Color space: YUV
Chroma subsampling: 4:2:0
Bit depth: 8 bits
Scan type: Progressive
Bits/(Pixel*Frame): 0.093
Stream size: 1.16 GiB (80%)
Title: Брат / Brother (1997) x264
Writing library: x264 core 89 r1471kGIT 1144615
Encoding settings: cabac=1 / ref=9 / deblock=1:-1:-1 / analyse=0x3:0x113 / me=esa / subme=9 / psy=1 / psy_rd=1.00:0.00 / mixed_ref=1 / me_range=32 / chroma_me=1 / trellis=2 / 8x8dct=1 / cqm=0 / deadzone=21,11 / fast_pskip=1 / chroma_qp_offset=-2 / threads=6 / sliced_threads=0 / nr=0 / decimate=0 / interlaced=0 / constrained_intra=0 / bframes=8 / b_pyramid=2 / b_adapt=2 / b_bias=0 / direct=1 / wpredb=1 / wpredp=2 / keyint=250 / keyint_min=25 / scenecut=40 / intra_refresh=0 / rc=2pass / mbtree=0 / bitrate=1708 / ratetol=1.0 / qcomp=0.60 / qpmin=10 / qpmax=51 / qpstep=4 / cplxblur=20.0 / qblur=0.5 / ip_ratio=1.40 / pb_ratio=1.30 / aq=1:1.00 / zones=140813,143300,b=0.5 / pulldown=0
Language: Russian

Audio
ID: 2
Format: AC-3
Format/Info: Audio Coding 3
Mode extension: CM (complete main)
Codec ID: A_AC3
Duration: 1h 39mn
Bit rate mode: Constant
Bit rate: 384 Kbps
Channel(s): 6 channels
Channel positions: Front: L C R, Side: L R, LFE
Sampling rate: 48.0 KHz
Bit depth: 16 bits
Compression mode: Lossy
Delay relative to video: 100ms
Stream size: 274 MiB (18%)
Title: AC3 5.1 384Kbps
Language: Russian













[b]Брат 2[/b]

Формат: DVDRip-AVC, MKV, H.264, AC3

Режиссер: Алексей Балабанов

Жанр: боевик, драма, криминал

Продолжительность: 02:02:36

Год выпуска: 2000

В ролях: Сергей Бодров мл., Виктор Сухоруков, Сергей Маковецкий, Ирина Салтыкова, Кирилл Пирогов, Александр Дьяченко, Дарья Лесникова, Гари Хьюстон, Рэй Толер, Лиза Джеффри

Описание: Участвуя в программе на телевидении, Данила Багров встречает своих друзей по Чечне. Одного из них внезапно убивают. Данила знает, что у того были неприятности из-за брата-хоккеиста в Америке. Данила должен разобраться.

Теперь его фотография ходит по рукам русской и американской мафии. Новоявленные «Аль Капоне» понимают, что нарвались на профессионала…


_______

Видео: 720 x 416 (16:9), 25.000 fps, AVC (х264) High@L4.1 , ~ 1 412 kbps avg, 0.189 bit/pixel
Аудио: 48 kHz, AC3 Dolby Digital, 3/2 (L,C,R,l,r) + LFE ch, ~384 kbps avg

Топ250: 222

General
Unique ID: 171682826361013406725743683465333650537 (0x8128E8DD065A2830B7FDC6DEDD7F3469)
Complete name: E:\tfile\brat_[tfile.ru]\Brat_2_DVDRip-AVC_[tfile.ru].mkv
Format: Matroska
File size: 1.57 GiB
Duration: 2h 2mn
Overall bit rate: 1 832 Kbps
Encoded date: UTC 2009-08-21 19:59:06
Writing application: mkvmerge v2.4.0 ('Fumbling Towards Ecstasy') built on Oct 11 2008 20:13:15
Writing library: libebml v0.7.7 + libmatroska v0.8.1

Video
ID: 1
Format: AVC
Format/Info: Advanced Video Codec
Format profile: High@L4.1
Format settings, CABAC: Yes
Format settings, ReFrames: 3 frames
Format settings, GOP: M=1, N=3
Codec ID: V_MPEG4/ISO/AVC
Duration: 2h 2mn
Bit rate: 1 412 Kbps
Width: 720 pixels
Height: 416 pixels
Display aspect ratio: 16:9
Frame rate: 25.000 fps
Color space: YUV
Chroma subsampling: 4:2:0
Bit depth: 8 bits
Scan type: Progressive
Bits/(Pixel*Frame): 0.189
Stream size: 1.21 GiB (77%)
Writing library: x264 core 65 r999kMod cc51047
Encoding settings: cabac=1 / ref=3 / deblock=1:0:0 / analyse=0x3:0x133 / me=umh / subme=6 / psy_rd=1.0:0.0 / mixed_ref=1 / me_range=16 / chroma_me=1 / trellis=1 / 8x8dct=1 / cqm=0 / deadzone=21,11 / chroma_qp_offset=-2 / threads=4 / thread_queue=4 / nr=0 / decimate=1 / mbaff=0 / bframes=3 / b_pyramid=1 / b_adapt=1 / b_bias=0 / direct=1 / wpredb=1 / keyint=250 / keyint_min=25 / scenecut=40(pre) / rc=crf / crf=21.0000 / qcomp=0.60 / qpmin=10 / qpmax=51 / qpstep=4 / ip_ratio=1.40 / pb_ratio=1.30 / aq=1:1.00

Audio
ID: 2
Format: AC-3
Format/Info: Audio Coding 3
Mode extension: CM (complete main)
Codec ID: A_AC3
Duration: 2h 2mn
Bit rate mode: Constant
Bit rate: 384 Kbps
Channel(s): 6 channels
Channel positions: Front: L C R, Side: L R, LFE
Sampling rate: 48.0 KHz
Bit depth: 16 bits
Compression mode: Lossy
Stream size: 337 MiB (21%)









Поделиться:




реклама партнёра


Вернуться к началу
 Профиль Отправить личное сообщение  
 
   Похожие торренты   Автор   Торрент   Размер 
В этой теме нет новых непрочитанных сообщений. Трубка Сталина: ход старого шамана ("Брат-2", Балабанов, 1997, 2000) Меняйлов [2014, комедия, боевик, HDRip]

vairgin

9 | 2

920.54 МБ

В этой теме нет новых непрочитанных сообщений. О, где же ты, брат? / O Brother, Where Art Thou? [комедия, криминал, музыка, 2000] HDRip, Dub

salma3

106 | 14

1.45 ГБ

В этой теме нет новых непрочитанных сообщений. Точка отсчета / Point Doom [боевик, драма, криминал, 2000] DVDRip, Dvo

salma3

3 | 1

1.41 ГБ

В этой теме нет новых непрочитанных сообщений. Мистер Крутой / Yat goh hiu yan [боевик, криминал, комедия, 1997] DVDRip, Mvo

salma3

79 | 16

1.37 ГБ

В этой теме нет новых непрочитанных сообщений. Против закона / Against the Law [боевик, триллер, криминал, 1997] DVDRip, Mvo

salma3

5 | 4

1.46 ГБ

В этой теме нет новых непрочитанных сообщений. Братья Блюз 2000 / Blues Brothers 2000 [боевик, комедия, криминал, музыка, 1998] Blu-ray 1080p, Mvo+Sub

salma3

11 | 7

35.86 ГБ

В этой теме нет новых непрочитанных сообщений. Крутые Стволы / Mean Guns [криминал, боевик, 1997] DVDRip, Dvo [Director's cut]

salma3

48 | 4

1.46 ГБ


Начать новую тему Ответить на тему  [ 1 сообщение ] 




Для Мосгорсуда, Роскомнадзора и рекламодателей:: mosgorsud-torrent[собачка]yandex.ru