Торрент файл
скачать торрент магнет ссылка Добавлен: 09 янв 2012, 02:42
Размер: 2.18 ГБ
Сидеров: 1
Личеров: 9
Статус: (nikk1988)
Автор

СообщениеДобавлено: 09 янв 2012, 02:42 

Не в сети
Аватара пользователя
Дата регистрации:
14 мар 2011, 17:24
Возраст: 31
Спасибо: 14 / 8
Сообщения: 38
Откуда: 9CaraTT.COM
Высоцкий. Спасибо, что живой
«Два часа настоящей жизни»


Страна: Россия
Жанр: Драма, биография
Год выпуска: 2011
Продолжительность: 02:06:47
Субтитры: нет

Режиссёр: Петр Буслов

В ролях: Оксана Акиньшина, Сергей Безруков, Андрей Смоляков, Иван Ургант, Максим Леонидов, Андрей Панин, Владимир Ильин, Дмитрий Астрахан, Анна Ардова, Владимир Меньшов.

Описание: Действие фильма разворачивается в 1979 году, когда на одном из концертов Высоцкому становится плохо с сердцем. Он переживает клиническую смерть.

Рейтинг Кинопоиск.RU:7.639
Рейтинг IMDB:7.2/10
Рейтинг MPAA:no

Качество: DVDRip (Исходник)
Формат файла: AVI
Видео кодек: XviD
Аудио кодек: AC3
Видео: 720x304 (2.37:1), 25 fps, XviD build 50 ~2007 kbps avg, 0.37 bit/pixel
Аудио: 48 kHz, AC3 Dolby Digital, 3/2 (L,C,R,l,r) + LFE ch, ~448.00 kbps avg

Семпл
Общее
Полное имя : F:\Кино на раздачу\Vysockij_spasibo_rip_9CaraTT.avi
Формат : AVI
Формат/Информация : Audio Video Interleave
Профиль формата : OpenDML
Размер файла : 2,18 Гбайт
Продолжительность : 2 ч. 6 м.
Общий поток : 2462 Кбит/сек
Программа кодирования : VirtualDubModRus 1.5.10.2 (build 2542/release)
Библиотека кодирования : VirtualDubMod build 2542/release

Видео
Идентификатор : 0
Формат : MPEG-4 Visual
Профиль формата : Advanced Simple@L5
Параметр BVOP формата : 1
Параметр QPel формата : Нет
Параметр GMC формата : Без точки перехода
Параметр матрицы формата : Выборочная
Идентификатор кодека : XVID
Идентификатор кодека/Подсказка : XviD
Продолжительность : 2 ч. 6 м.
Битрейт : 2002 Кбит/сек
Ширина : 720 пикселей
Высота : 304 пикселя
Соотношение сторон : 2,35:1
Частота кадров : 25,000 кадров/сек
Цветовое пространство : YUV
Субдискретизация насыщенности : 4:2:0
Битовая глубина : 8 бит
Тип развёртки : Прогрессивная
Метод сжатия : С потерями
Бит/(Пиксели*Кадры) : 0.366
Размер потока : 1,77 Гбайт (81%)
Библиотека кодирования : XviD 1.2.1 (UTC 2008-12-04)

Аудио
Идентификатор : 1
Формат : AC-3
Формат/Информация : Audio Coding 3
Расширение режима : CM (complete main)
Идентификатор кодека : 2000
Продолжительность : 2 ч. 6 м.
Вид битрейта : Постоянный
Битрейт : 448 Кбит/сек
Каналы : 6 каналов
Расположение каналов : Front: L C R, Side: L R, LFE
Частота : 48,0 КГц
Битовая глубина : 16 бит
Метод сжатия : С потерями
Размер потока : 406 Мбайт (18%)
Выравнивание : Разделение по промежуткам
Продолжительность промежутка : 40 мс. (1,00 видеокадр)
Время предзагрузки промежутка : 500 мс.

Мой чёрный человек в костюме сером.
Он был министром, домуправом, офицером.
Как злобный клоун, он менял личины
И бил под дых внезапно, без причины.

И, улыбаясь, мне ломали крылья,
Мой хрип порой похожим был на вой,
И я немел от боли и бессилья,
И лишь шептал: "Спасибо, что живой".

Я суеверен был, искал приметы, —
Что, мол, пройдёт, терпи, всё ерунда...
Я даже прорывался в кабинеты
И зарекался: "Больше — никогда!"

Вокруг меня кликуши голосили:
"В Париж мотает, словно мы — в Тюмень;
Пора такого выгнать из России,
Давно пора, — видать, начальству лень!"

Судачили про дачу и зарплату:
Мол, денег прорва, по ночам кую.
Я всё отдам, берите без доплаты
Трёхкомнатную камеру мою.

И мне давали добрые советы,
Чуть свысока похлопав по плечу,
Мои друзья — известные поэты:
"Не стоит рифмовать: "Кричу — торчу"!"

И лопнула во мне терпенья жила,
И я со смертью перешёл на "ты" —
Она давно возле меня кружила,
Побаивалась только хрипоты.

Я от Суда скрываться не намерен,
Коль призовут — отвечу на вопрос:
Я до секунд всю жизнь свою измерил
И худо-бедно, но тащил свой воз.

Но знаю я, что лживо, а что свято,
Я понял это всё-таки давно.
Мой путь один, всего один, ребята, —
Мне выбора, по счастью, не дано.

Автор: Владимир Высоцкий 1979г.
Рип от:




реклама партнёра


Вернуться к началу
 Профиль Отправить личное сообщение  
 
   Похожие торренты   Автор   Торрент   Размер 
В этой теме нет новых непрочитанных сообщений. Родина (Пётр Буслов) [Триллер, драма, 2015] WEB-DL 1080p

Dracon

106 | 4

4.19 ГБ

В этой теме нет новых непрочитанных сообщений. Родина (Пётр Буслов) [Триллер, драма, 2015] WEB-DL 720p

Dracon

477 | 10

3.81 ГБ

В этой теме нет новых непрочитанных сообщений. Родина (Пётр Буслов) [Триллер, драма, 2015] WEB-DLRip

Dracon

3403 | 48

1.46 ГБ

В этой теме нет новых непрочитанных сообщений. Живой щит / Защитник / The Human Shield [Боевик, драма, приключения, 1991] DVD-5, Dvo [Лицензия]

salma3

0 | 5

4.09 ГБ

В этой теме нет новых непрочитанных сообщений. Стартап [биография, Драма, 2014] DVDRip-AVC [лицензия]

Dracon

308 | 4

1.46 ГБ

В этой теме нет новых непрочитанных сообщений. Джими Хендрикс / All Is by My Side [Драма, биография, музыка, 2013] DVDRip, Mvo [лицензия]

Dracon

551 | 10

2.05 ГБ

В этой теме нет новых непрочитанных сообщений. Король говорит! / The King's Speech [Драма, биография, история, 2010] DVDRip, Dub [лицензия]

salma3

11 | 2

1.31 ГБ


СообщениеДобавлено: 09 янв 2012, 02:47 

Не в сети
Аватара пользователя
Дата регистрации:
14 мар 2011, 17:24
Возраст: 31
Спасибо: 14 / 8
Сообщения: 38
Откуда: 9CaraTT.COM
Что-то не пойму, не получается отредактировать, там ссылка на сторонний ресурс :? раздача пока слабая, но раздавать буду до того пока комп не вырублю.


Вернуться к началу
 Профиль Отправить личное сообщение  
 

СообщениеДобавлено: 09 янв 2012, 14:26 

Не в сети
Дата регистрации:
02 фев 2011, 13:49
Спасибо: 0 / 0
Сообщения: 2
Давай скорости! Поддержу!


Вернуться к началу
 Профиль Отправить личное сообщение  
 
Начать новую тему Ответить на тему  [ Сообщений: 3 ] 




Для Мосгорсуда, Роскомнадзора и рекламодателей:: mosgorsud-torrent[собачка]yandex.ru