Торрент файл
скачать торрент магнет ссылка Добавлен: 07 авг 2019, 20:13
Размер: 5.91 ГБ
Сидеров: 50
Личеров: 7
Автор

СообщениеДобавлено: 07 авг 2019, 20:13 

Не в сети
Супермодератор
Аватара пользователя
Дата регистрации:
15 фев 2012, 16:44
Возраст: 30
Спасибо: 8131 / 2147
Сообщения: 94854
Год выпуска: 2019
Жанр: Мультфильм, приключения, семейный
Режиссер: Винсент Кестелут, Бен Стассен

В ролях: Джек Уайтхолл, Джули Уолтерс, Том Кортни, Джон Калшоу, Ямал Фахим, Кулвиндер Гир, Сара Хэдлэнд, Тимоти Кристиан Джэнсен, Мэтт Лукас, Колин Макфарлэйн

О фильме:
Любимая порода собак у очень богатых и влиятельных людей — это корги. Маленькие собачки полностью погружены в жизнь своих больших хозяев. Спасаясь от политических интриг, любимец Британской Королевы вынужден покинуть Букингемский дворец. Теперь ему предстоит не только познакомиться с тайной жизнью улиц Лондона, но и доказать, что он настоящий Королевский Корги…



Страна: Бельгия
Продолжительность: 01:25:17
Перевод: Дублированный | iTunes

Файл
Качество: BDRip (by Ash61) (исх - BD 3D Dut)
Контейнер: MKV
Формат 3D: Half OverUnder / Вертикальная анаморфная стереопара
Порядок ракурсов: левый ракурс первый



Видео: AVC / 1920х1080p / 23,976 fps / 8500 Kbps

Аудио:
#1 - Русский / AC3 / 48 KHz / 5.1 ch / 384 Kbps (Дубляж - iTunes)
#2 - Украинский / AC3 / 48 KHz / 5.1 ch / 384 Kbps (Дубляж - iTunes)
#3 - Английский / AC3 / 48 KHz / 5.1 ch / 640 Kbps (Original - BD 3D Dut)

Субтитры (SRT):
Вшитые (softsub):
#1 - Русские Форсированные (включены по умолчанию)
#2 - Русские Полные
#3 - Украинские Форсированные
#4 - English Full

Внешние (UTF-8):
#1 - Русские Форсированные (включены по умолчанию)
#2 - Русские Полные
#3 - Украинские Форсированные

General
Unique ID : 192713328842430471044522333716849420706 (0x90FB3CB09EE6B1598A1E80205A94E9A2)
Complete name : J:TheQueen'sCorgi(2019)3D-hOU(Ash61)iTunesTheQueen'sCorgi(2019)3D-hOU(Ash61)iTunes.mkv
Format : Matroska
Format version : Version 2
File size : 5.91 GiB
Duration : 1h 25mn
Overall bit rate : 9 909 Kbps
Movie name : Королевский корги / The Queen's Corgi (Royal Corgi) (2019) in 3D
Encoded date : UTC 2019-08-07 14:48:50
Writing application : mkvmerge v5.8.0 ('No Sleep / Pillow') built on Sep 2 2012 15:37:04
Writing library : libebml v1.2.3 + libmatroska v1.3.0

Video
ID : 1
Format : AVC
Format/Info : Advanced Video Codec
Format profile : High@L4.1
Format settings, CABAC : Yes
Format settings, ReFrames : 4 frames
Codec ID : V_MPEG4/ISO/AVC
Duration : 1h 25mn
Bit rate : 8 500 Kbps
Width : 1 920 pixels
Height : 1 080 pixels
Display aspect ratio : 16:9
Frame rate mode : Constant
Frame rate : 23.976 (24000/1001) fps
Color space : YUV
Chroma subsampling : 4:2:0
Bit depth : 8 bits
Scan type : Progressive
Bits/(Pixel*Frame) : 0.171
Stream size : 4.95 GiB (84%)
Title : BDRip by Ash61 (исх - BD 3D Dut)
Writing library : x264 core 146 r2538 121396c
Encoding settings : cabac=1 / ref=4 / deblock=1:-3:-3 / analyse=0x3:0x113 / me=umh / subme=10 / psy=1 / psy_rd=1.00:0.00 / mixed_ref=1 / me_range=32 / chroma_me=1 / trellis=2 / 8x8dct=1 / cqm=0 / deadzone=21,11 / fast_pskip=0 / chroma_qp_offset=-2 / threads=12 / lookahead_threads=2 / sliced_threads=0 / nr=0 / decimate=0 / interlaced=0 / bluray_compat=0 / constrained_intra=0 / bframes=8 / b_pyramid=2 / b_adapt=2 / b_bias=0 / direct=3 / weightb=1 / open_gop=0 / weightp=2 / keyint=250 / keyint_min=23 / scenecut=40 / intra_refresh=0 / rc_lookahead=60 / rc=2pass / mbtree=0 / bitrate=8500 / ratetol=1.0 / qcomp=0.70 / qpmin=0 / qpmax=69 / qpstep=4 / cplxblur=20.0 / qblur=0.5 / vbv_maxrate=40000 / vbv_bufsize=30000 / nal_hrd=none / filler=0 / frame-packing=4 / ip_ratio=1.40 / pb_ratio=1.30 / aq=1:0.70
Language : English
Default : Yes
Forced : No

Audio #1
ID : 2
Format : AC-3
Format/Info : Audio Coding 3
Mode extension : CM (complete main)
Format settings, Endianness : Big
Codec ID : A_AC3
Duration : 1h 25mn
Bit rate mode : Constant
Bit rate : 384 Kbps
Channel(s) : 6 channels
Channel positions : Front: L C R, Side: L R, LFE
Sampling rate : 48.0 KHz
Frame rate : 31.250 fps (1536 spf)
Compression mode : Lossy
Stream size : 235 MiB (4%)
Title : Дубляж (iTunes)
Language : Russian
Default : Yes
Forced : No

Audio #2
ID : 3
Format : AC-3
Format/Info : Audio Coding 3
Mode extension : CM (complete main)
Format settings, Endianness : Big
Codec ID : A_AC3
Duration : 1h 25mn
Bit rate mode : Constant
Bit rate : 384 Kbps
Channel(s) : 6 channels
Channel positions : Front: L C R, Side: L R, LFE
Sampling rate : 48.0 KHz
Frame rate : 31.250 fps (1536 spf)
Compression mode : Lossy
Stream size : 235 MiB (4%)
Title : Дубляж (iTunes)
Language : Ukrainian
Default : No
Forced : No

Audio #3
ID : 4
Format : AC-3
Format/Info : Audio Coding 3
Mode extension : CM (complete main)
Format settings, Endianness : Big
Codec ID : A_AC3
Duration : 1h 25mn
Bit rate mode : Constant
Bit rate : 640 Kbps
Channel(s) : 6 channels
Channel positions : Front: L C R, Side: L R, LFE
Sampling rate : 48.0 KHz
Frame rate : 31.250 fps (1536 spf)
Compression mode : Lossy
Stream size : 391 MiB (6%)
Title : Original (BD 3D Dut)
Language : English
Default : No
Forced : No

Text #1
ID : 5
Format : UTF-8
Codec ID : S_TEXT/UTF8
Codec ID/Info : UTF-8 Plain Text
Title : Форсированные
Language : Russian
Default : Yes
Forced : No

Text #2
ID : 6
Format : UTF-8
Codec ID : S_TEXT/UTF8
Codec ID/Info : UTF-8 Plain Text
Title : Полные
Language : Russian
Default : No
Forced : No

Text #3
ID : 7
Format : UTF-8
Codec ID : S_TEXT/UTF8
Codec ID/Info : UTF-8 Plain Text
Title : Форсированные
Language : Ukrainian
Default : No
Forced : No

Text #4
ID : 8
Format : UTF-8
Codec ID : S_TEXT/UTF8
Codec ID/Info : UTF-8 Plain Text
Title : Full
Language : English
Default : No
Forced : No

Menu
00:00:00.000 : :1
00:05:10.977 : :2
00:11:42.285 : :3
00:17:41.519 : :4
00:27:51.587 : :5
00:40:54.577 : :6
00:48:20.022 : :7
00:57:23.315 : :8
01:02:38.129 : :9
01:06:23.271 : :10
01:15:57.803 : :11
01:21:44.399 : :12














Прокат «Королевского корги» должен был начаться 7 марта одновременно с отечественным проектом «Гурвинек. Волшебная игра». 1 марта прокатная компания получила от Минкультуры (Мединского) сообщение об отказе в выдаче прокатного удостоверения «Корги» - ведомство предложило прокатной компании «Вольга» перенести релиз «Корги» на другой день — конец марта или начало апреля. В ответ Ассоциация владельцев кинотеатров заявила, что не будет выпускать «Гурвинека», если «Корги» не позволят выйти в запланированный день.
«Вольга» ранее уже дважды сталкивалась с переносом релизов своих проектов. Сперва Минкультуры за день до премьеры отозвало прокатное удостоверение фильма «Приключения Паддингтона 2» (в пользу российской картины «Селфи»), а в марте 2018-го предложило компании перенести релиз мультфильма «Распрекрасный принц», так как тот выходил в один день с русским «Садко».


_________________
Проголосуй за трекер Открытый торрент трекер - RUS-MEDIA.ORG

Проголосуй Открытый торрент трекер - RUS-MEDIA.ORG


Скачать книги и аудио книги через торрент


Вернуться к началу
 Профиль Отправить личное сообщение  
 
   Похожие торренты   Автор   Торрент   Размер 
В этой теме нет новых непрочитанных сообщений. Королевский корги / The Queen's Corgi [Мультфильм, приключения, семейный, 2019] BDRip, Dub [iTunes]

salma3

1 | 0

1.42 ГБ

В этой теме нет новых непрочитанных сообщений. Королевский корги / The Queen's Corgi [Мультфильм, приключения, семейный, 2019] BDRip 720p, Dub [iTunes]

salma3

5 | 0

3.83 ГБ

В этой теме нет новых непрочитанных сообщений. Королевский корги / The Queen's Corgi [Мультфильм, приключения, семейный, 2019] BDRemux 1080p, Dub [iTunes]

salma3

0 | 0

19.21 ГБ

В этой теме нет новых непрочитанных сообщений. Королевский корги / The Queen's Corgi [мультфильм, комедия, семейный, 2019] BDRip 1080p, Dub [iTunes]

OLEG270877

7 | 0

7.9 ГБ

В этой теме нет новых непрочитанных сообщений. Королевский корги / The Queen's Corgi [мультфильм, комедия, семейный, 2019] BDRip-HEVC 1080p, Dub [iTunes]

salma3

0 | 0

5.37 ГБ

В этой теме нет новых непрочитанных сообщений. Король Лев / The Lion King [Мультфильм, мюзикл, драма, приключения, семейный, 2019] BDRip-HEVC 1080p, Dub [iTunes]

K15

563 | 33

6.8 ГБ

В этой теме нет новых непрочитанных сообщений. Аисты / Storks ( Мультфильм, Фэнтези, Комедия, Приключения, Семейный, 2016) BDRip 1080p от Ash61 | 3D-Video | halfOU | iTunes

marya111

129 | 92

9.19 ГБ


Начать новую тему Ответить на тему  [ 1 сообщение ] 




Для Мосгорсуда, Роскомнадзора и рекламодателей:: mosgorsud-torrent[собачка]yandex.ru
cron