Торрент файл
скачать торрент магнет ссылка Добавлен: 09 июл 2019, 22:53
Размер: 9.07 ГБ
Сидеров: 2
Личеров: 2
Автор

СообщениеДобавлено: 09 июл 2019, 22:53 

Не в сети
Супермодератор
Аватара пользователя
Дата регистрации:
15 фев 2012, 16:44
Возраст: 30
Спасибо: 8112 / 2147
Сообщения: 93556
Год выхода: 2019
Жанр: мультфильм, фэнтези, боевик
Режиссер: Дин ДеБлуа

В ролях: Кейт Бланшетт, Джерард Батлер, Джона Хилл, Кит Харингтон, Кристен Уиг, Джей Барушель, Кристофер Минц-Плассе, Америка Феррера, Оулавюр Дарри Оулафссон, Ф. Мюррэй Абрахам, Крэйг Фергюсон, Джастин Руппл

О фильме:
Когда-то викинги жили в гармонии с драконами. В те времена они делили радость, горе… и последние штаны. Казалось, что так будет всегда, но появление загадочной Дневной Фурии изменило жизнь острова. И теперь Иккинг и Беззубик столкнутся с безжалостным охотником на драконов, жаждущим уничтожить все, что им дорого.



Страна: США
Продолжительность: 01:44:06
Перевод: Дублированный [Лицензия]

Файл
Качество: BDRip (by Ash61)
Контейнер: MKV
Формат 3D: Half OverUnder / Вертикальная анаморфная стереопара
Порядок ракурсов: левый ракурс первый



Видео: AVC / 1920х1080p / 23,976 fps / 11.0 Mbps

Аудио:
#1 - Русский / AC3 / 48 KHz / 5.1 ch / 640 Kbps (Дубляж - BD UHD Eur)
#2 - Украинский / AC3 / 48 KHz / 2 ch / 192 Kbps (Дубляж) (спасибо Hurtom!)
#3 - Английский / AC3 / 48 KHz / 5.1 ch / 640 Kbps (Original)

Субтитры (SRT):
Вшитые (softsub):
#1 - Русские Форсированные (одна надпись) (включены по умолчанию)
#2 - Русские Полные
#3 - English Full
#4 - English SDH

Внешние (UTF-8):
#1 - Русские Форсированные (одна надпись) (включены по умолчанию)

General
Unique ID : 219518704675976336730169725495594624044 (0xA525C3C1569149688F8504196F66A42C)
Complete name : J:HowToTrainYourDragon3(2019)3D-hOU(Ash61)HowToTrainYourDragon3(2019)3D-hOU(Ash61).mkv
Format : Matroska
Format version : Version 2
File size : 9.07 GiB
Duration : 1h 44mn
Overall bit rate : 12.5 Mbps
Movie name : Как приручить дракона 3 / How to Train Your Dragon: The Hidden World (2019) in 3D
Encoded date : UTC 2019-06-11 14:00:13
Writing application : mkvmerge v5.8.0 ('No Sleep / Pillow') built on Sep 2 2012 15:37:04
Writing library : libebml v1.2.3 + libmatroska v1.3.0

Video
ID : 1
Format : AVC
Format/Info : Advanced Video Codec
Format profile : High@L4.1
Format settings, CABAC : Yes
Format settings, ReFrames : 4 frames
Codec ID : V_MPEG4/ISO/AVC
Duration : 1h 44mn
Bit rate : 11.0 Mbps
Width : 1 920 pixels
Height : 1 080 pixels
Display aspect ratio : 16:9
Frame rate mode : Constant
Frame rate : 23.976 (24000/1001) fps
Color space : YUV
Chroma subsampling : 4:2:0
Bit depth : 8 bits
Scan type : Progressive
Bits/(Pixel*Frame) : 0.221
Stream size : 7.82 GiB (86%)
Title : BDRip by Ash61
Writing library : x264 core 146 r2538 121396c
Encoding settings : cabac=1 / ref=4 / deblock=1:-3:-3 / analyse=0x3:0x113 / me=umh / subme=10 / psy=1 / psy_rd=1.00:0.00 / mixed_ref=1 / me_range=32 / chroma_me=1 / trellis=2 / 8x8dct=1 / cqm=0 / deadzone=21,11 / fast_pskip=0 / chroma_qp_offset=-2 / threads=12 / lookahead_threads=2 / sliced_threads=0 / nr=0 / decimate=0 / interlaced=0 / bluray_compat=0 / constrained_intra=0 / bframes=8 / b_pyramid=2 / b_adapt=2 / b_bias=0 / direct=3 / weightb=1 / open_gop=0 / weightp=2 / keyint=250 / keyint_min=23 / scenecut=40 / intra_refresh=0 / rc_lookahead=60 / rc=2pass / mbtree=0 / bitrate=11000 / ratetol=1.0 / qcomp=0.70 / qpmin=0 / qpmax=69 / qpstep=4 / cplxblur=20.0 / qblur=0.5 / vbv_maxrate=40000 / vbv_bufsize=30000 / nal_hrd=none / filler=0 / frame-packing=4 / ip_ratio=1.40 / pb_ratio=1.30 / aq=1:0.70
Language : English
Default : Yes
Forced : No

Audio #1
ID : 2
Format : AC-3
Format/Info : Audio Coding 3
Mode extension : CM (complete main)
Format settings, Endianness : Big
Codec ID : A_AC3
Duration : 1h 44mn
Bit rate mode : Constant
Bit rate : 640 Kbps
Channel(s) : 6 channels
Channel positions : Front: L C R, Side: L R, LFE
Sampling rate : 48.0 KHz
Frame rate : 31.250 fps (1536 spf)
Compression mode : Lossy
Stream size : 477 MiB (5%)
Title : Дубляж (BD UHD Eur)
Language : Russian
Default : Yes
Forced : No

Audio #2
ID : 3
Format : AC-3
Format/Info : Audio Coding 3
Mode extension : CM (complete main)
Format settings, Endianness : Big
Codec ID : A_AC3
Duration : 1h 44mn
Bit rate mode : Constant
Bit rate : 192 Kbps
Channel(s) : 2 channels
Channel positions : Front: L R
Sampling rate : 48.0 KHz
Frame rate : 31.250 fps (1536 spf)
Compression mode : Lossy
Stream size : 143 MiB (2%)
Title : Дубляж
Language : Ukrainian
Default : No
Forced : No

Audio #3
ID : 4
Format : AC-3
Format/Info : Audio Coding 3
Mode extension : CM (complete main)
Format settings, Endianness : Big
Codec ID : A_AC3
Duration : 1h 44mn
Bit rate mode : Constant
Bit rate : 640 Kbps
Channel(s) : 6 channels
Channel positions : Front: L C R, Side: L R, LFE
Sampling rate : 48.0 KHz
Frame rate : 31.250 fps (1536 spf)
Compression mode : Lossy
Stream size : 477 MiB (5%)
Title : Original
Language : English
Default : No
Forced : No

Text #1
ID : 5
Format : UTF-8
Codec ID : S_TEXT/UTF8
Codec ID/Info : UTF-8 Plain Text
Title : Форсированные (одна надпись)
Language : Russian
Default : Yes
Forced : No

Text #2
ID : 6
Format : UTF-8
Codec ID : S_TEXT/UTF8
Codec ID/Info : UTF-8 Plain Text
Title : Полные
Language : Russian
Default : No
Forced : No

Text #3
ID : 7
Format : UTF-8
Codec ID : S_TEXT/UTF8
Codec ID/Info : UTF-8 Plain Text
Title : Full
Language : English
Default : No
Forced : No

Text #4
ID : 8
Format : UTF-8
Codec ID : S_TEXT/UTF8
Codec ID/Info : UTF-8 Plain Text
Title : SDH
Language : English
Default : No
Forced : No

Menu
00:00:00.000 : :1
00:05:13.521 : :2
00:10:26.833 : :3
00:14:52.224 : :4
00:20:33.397 : :5
00:24:38.684 : :6
00:28:40.884 : :7
00:31:10.117 : :8
00:37:34.751 : :9
00:44:38.550 : :10
00:47:53.579 : :11
00:53:11.021 : :12
00:57:36.286 : :13
01:01:25.056 : :14
01:08:55.922 : :15
01:14:17.703 : :16
01:19:31.140 : :17
01:23:23.288 : :18
01:28:25.091 : :19
01:33:53.377 : :20





















_________________
Проголосуй за трекер Открытый торрент трекер - RUS-MEDIA.ORG

Проголосуй Открытый торрент трекер - RUS-MEDIA.ORG


Книжный торрент трекер



Вернуться к началу
 Профиль Отправить личное сообщение  
 
   Похожие торренты   Автор   Торрент   Размер 
В этой теме нет новых непрочитанных сообщений. Как приручить дракона 3 / How to Train Your Dragon: The Hidden World [Мультфильм, фэнтези, боевик, 2019] BDRip, Dub [Лицензия]

salma3

8 | 1

1.46 ГБ

В этой теме нет новых непрочитанных сообщений. Как приручить дракона 3 / How to Train Your Dragon: The Hidden World [мультфильм, фэнтези, боевик, 2019] Blu-ray EUR 1080p, Dub [Лицензия]

salma3

0 | 0

41.4 ГБ

В этой теме нет новых непрочитанных сообщений. История игрушек 4 / Toy Story 4 [Мультфильм, фэнтези, комедия, 2019] BDRemux 1080p, Dub [Лицензия] [3D-Video]

salma3

0 | 0

23.79 ГБ

В этой теме нет новых непрочитанных сообщений. Человек-паук: Вдали от дома / Spider-Man: Far from Home (2019) BDRip 1080p, Dub [iTunes] [3D-Video]

salma3

185 | 64

10.31 ГБ

В этой теме нет новых непрочитанных сообщений. Тайная жизнь домашних животных 2 3Д / The Secret Life of Pets 2 3D [мультфильм, комедия, приключения, 2019] Blu-ray EUR 1080p, Dub [Лицензия] [3D-Video]

salma3

0 | 0

30.1 ГБ

В этой теме нет новых непрочитанных сообщений. Ма / Ma [Ужасы, триллер, 2019] BDRip 1080p, Dub [Лицензия]

K15

0 | 0

12.27 ГБ

В этой теме нет новых непрочитанных сообщений. Поезд в Пусан / Train to Busan / Busanhaeng [Триллер, драма, ужасы, 2016] BDRip, Dub [Лицензия]

K15

12 | 3

1.46 ГБ


Начать новую тему Ответить на тему  [ 1 сообщение ] 




Для Мосгорсуда, Роскомнадзора и рекламодателей:: mosgorsud-torrent[собачка]yandex.ru
cron