COVID-19 - Последняя информация о коронавирусе на сайте Минздрава




Торрент файл
скачать торрент магнет ссылка Добавлен: 29 июн 2019, 20:43
Размер: 5.56 ГБ
Сидеров: 0
Личеров: 0
Автор

СообщениеДобавлено: 29 июн 2019, 20:43 

Не в сети
Супермодератор
Аватара пользователя
Дата регистрации:
15 фев 2012, 16:44
Возраст: 31
Спасибо: 8266 / 2148
Сообщения: 96373
Год выпуска: 2018
Жанр: Мультфильм, фэнтези, комедия
Режиссер: Ярроу Чейни, Скотт Моужер

В ролях: Бенедикт Камбербэтч, Кэмерон Сили, Рашида Джонс, Фаррелл Уильямс, Тристан О`Хара, Кенан Томпсон, Сэм Лаваньино, Рамон Хэмилтон, Анджела Лэнсбери, Скарлет Эстевез, Майкл Битти, Лори Алан, Ивэн Кишияма

О фильме:
Любой бы на месте Гринча позеленел и взбесился. Как порядочный интроверт, он живёт в тёмной пещере на самой вершине горы подальше ото всех, но эти «все» готовят грандиознейшее празднование нового года. Они шумят, всё украшают и дико бесят. Кто бы отказал себе в удовольствии испортить праздник? Гринч решает украсть Новый год.



Страна: Китай, США, Франция, Япония
Продолжительность: 01:25:49
Перевод1: Дублированный [Лицензия]

Файл
Качество: BDRip (by Ash61) (исх - BD 3D Eur)
Контейнер: MKV
Формат 3D: Half OverUnder / Вертикальная анаморфная стереопара
Порядок ракурсов: левый ракурс первый



Видео: AVC / 1920х1080p / 23,976 fps / 8.0 Mbps

Аудио:
#1 - Русский / AC3 / 48 KHz / 5.1 ch / 640 Kbps (Дубляж - BD CEE)
#2 - Украинский / AC3 / 48 KHz / 2 ch / 192 Kbps (Дубляж) (Спасибо Hurtom!)
#3 - Английский / AC3 / 48 KHz / 5.1 ch / 448 Kbps (Original - BD 3D Eur)

Субтитры (SRT):
Вшитые (softsub):
#1 - Русские Форсированные [Ash61 v3] (включены по умолчанию)
#2 - Русские Полные
#3 - Украинские Форсированные [Крук]
#4 - English Full
#5 - English SDH (BD 3D)

Внешние (UTF-8):
#1 - Русские Форсированные [Ash61 v3] (включены по умолчанию)
#2 - Русские Полные
#3 - Украинские Форсированные [Крук]

General
Unique ID : 233317405048418220280200716307757345239 (0xAF874C359AE17481B6E2CCEB296129D7)
Complete name : J:TheGrinch(2018)3D-halfOU(Ash61)TheGrinch(2018)3D-halfOU(Ash61).mkv
Format : Matroska
Format version : Version 2
File size : 5.56 GiB
Duration : 1h 25mn
Overall bit rate : 9 281 Kbps
Movie name : Гринч / The Grinch (2018) in 3D
Encoded date : UTC 2019-04-06 09:47:47
Writing application : mkvmerge v5.8.0 ('No Sleep / Pillow') built on Sep 2 2012 15:37:04
Writing library : libebml v1.2.3 + libmatroska v1.3.0

Video
ID : 1
Format : AVC
Format/Info : Advanced Video Codec
Format profile : High@L4.1
Format settings, CABAC : Yes
Format settings, ReFrames : 4 frames
Codec ID : V_MPEG4/ISO/AVC
Duration : 1h 25mn
Bit rate : 8 000 Kbps
Width : 1 920 pixels
Height : 1 080 pixels
Display aspect ratio : 16:9
Frame rate mode : Constant
Frame rate : 23.976 (24000/1001) fps
Color space : YUV
Chroma subsampling : 4:2:0
Bit depth : 8 bits
Scan type : Progressive
Bits/(Pixel*Frame) : 0.161
Stream size : 4.69 GiB (84%)
Title : BDRip by Ash61
Writing library : x264 core 146 r2538 121396c
Encoding settings : cabac=1 / ref=4 / deblock=1:-3:-3 / analyse=0x3:0x113 / me=umh / subme=10 / psy=1 / psy_rd=1.00:0.00 / mixed_ref=1 / me_range=32 / chroma_me=1 / trellis=2 / 8x8dct=1 / cqm=0 / deadzone=21,11 / fast_pskip=0 / chroma_qp_offset=-2 / threads=12 / lookahead_threads=2 / sliced_threads=0 / nr=0 / decimate=0 / interlaced=0 / bluray_compat=0 / constrained_intra=0 / bframes=9 / b_pyramid=2 / b_adapt=2 / b_bias=0 / direct=3 / weightb=1 / open_gop=0 / weightp=2 / keyint=250 / keyint_min=23 / scenecut=40 / intra_refresh=0 / rc_lookahead=60 / rc=2pass / mbtree=0 / bitrate=8000 / ratetol=1.0 / qcomp=0.70 / qpmin=0 / qpmax=69 / qpstep=4 / cplxblur=20.0 / qblur=0.5 / vbv_maxrate=40000 / vbv_bufsize=30000 / nal_hrd=none / filler=0 / frame-packing=4 / ip_ratio=1.40 / pb_ratio=1.30 / aq=1:0.70
Language : English
Default : Yes
Forced : No

Audio #1
ID : 2
Format : AC-3
Format/Info : Audio Coding 3
Mode extension : CM (complete main)
Format settings, Endianness : Big
Codec ID : A_AC3
Duration : 1h 25mn
Bit rate mode : Constant
Bit rate : 640 Kbps
Channel(s) : 6 channels
Channel positions : Front: L C R, Side: L R, LFE
Sampling rate : 48.0 KHz
Frame rate : 31.250 fps (1536 spf)
Compression mode : Lossy
Stream size : 393 MiB (7%)
Title : Дубляж (BD 3D CEE)
Language : Russian
Default : Yes
Forced : No

Audio #2
ID : 3
Format : AC-3
Format/Info : Audio Coding 3
Mode extension : CM (complete main)
Format settings, Endianness : Big
Codec ID : A_AC3
Duration : 1h 25mn
Bit rate mode : Constant
Bit rate : 192 Kbps
Channel(s) : 2 channels
Channel positions : Front: L R
Sampling rate : 48.0 KHz
Frame rate : 31.250 fps (1536 spf)
Compression mode : Lossy
Stream size : 118 MiB (2%)
Title : Дубляж
Language : Ukrainian
Default : No
Forced : No

Audio #3
ID : 4
Format : AC-3
Format/Info : Audio Coding 3
Mode extension : CM (complete main)
Format settings, Endianness : Big
Codec ID : A_AC3
Duration : 1h 25mn
Bit rate mode : Constant
Bit rate : 448 Kbps
Channel(s) : 6 channels
Channel positions : Front: L C R, Side: L R, LFE
Sampling rate : 48.0 KHz
Frame rate : 31.250 fps (1536 spf)
Compression mode : Lossy
Stream size : 275 MiB (5%)
Title : Original (BD 3D Eur)
Language : English
Default : No
Forced : No

Text #1
ID : 5
Format : UTF-8
Codec ID : S_TEXT/UTF8
Codec ID/Info : UTF-8 Plain Text
Title : Форсированные [Ash61 (v3)]
Language : Russian
Default : Yes
Forced : No

Text #2
ID : 6
Format : UTF-8
Codec ID : S_TEXT/UTF8
Codec ID/Info : UTF-8 Plain Text
Title : Полные
Language : Russian
Default : No
Forced : No

Text #3
ID : 7
Format : UTF-8
Codec ID : S_TEXT/UTF8
Codec ID/Info : UTF-8 Plain Text
Title : Форсированные [Крук]
Language : Ukrainian
Default : No
Forced : No

Text #4
ID : 8
Format : UTF-8
Codec ID : S_TEXT/UTF8
Codec ID/Info : UTF-8 Plain Text
Title : Full
Language : English
Default : No
Forced : No

Text #5
ID : 9
Format : UTF-8
Codec ID : S_TEXT/UTF8
Codec ID/Info : UTF-8 Plain Text
Title : SDH (BD 3D Eur)
Language : English
Default : No
Forced : No

Menu
00:00:00.000 : :1
00:05:40.298 : :2
00:10:35.927 : :3
00:14:14.103 : :4
00:17:45.106 : :5
00:22:19.296 : :6
00:26:28.337 : :7
00:30:45.093 : :8
00:34:46.584 : :9
00:38:37.190 : :10
00:44:40.595 : :11
00:47:27.678 : :12
00:52:37.488 : :13
00:56:33.181 : :14
01:01:04.995 : :15
01:05:34.639 : :16
01:07:23.456 : :17
01:12:14.914 : :18
01:14:12.782 : :19
01:18:08.309 : :20



















_________________
Проголосуй за трекер Открытый торрент трекер - RUS-MEDIA.ORG

Проголосуй Открытый торрент трекер - RUS-MEDIA.ORG


Скачать книги и аудио книги через торрент


Вернуться к началу
 Профиль Отправить личное сообщение  
 
   Похожие торренты   Автор   Торрент   Размер 
В этой теме нет новых непрочитанных сообщений. Гринч / The Grinch [Мультфильм, фэнтези, комедия, 2018] BDRemux 1080p, Dub [Лицензия] [3D-Video]

salma3

0 | 0

29.19 ГБ

В этой теме нет новых непрочитанных сообщений. Гринч / The Grinch [Мультфильм, фэнтези, комедия, 2018] BDRip 1080p, Dub [Лицензия]

salma3

0 | 0

7.06 ГБ

В этой теме нет новых непрочитанных сообщений. Гринч / The Grinch [Мультфильм, фэнтези, комедия, 2018] BDRip, Dub [Лицензия]

salma3

0 | 0

1.46 ГБ

В этой теме нет новых непрочитанных сообщений. Гринч / The Grinch [Мультфильм, фэнтези, комедия, 2018] BDRip, Dub [Лицензия]

salma3

0 | 0

748.87 МБ

В этой теме нет новых непрочитанных сообщений. Гринч / The Grinch [Мультфильм, фэнтези, комедия, 2018] BDRip 720p, Dub [Лицензия]

salma3

0 | 0

4.17 ГБ

В этой теме нет новых непрочитанных сообщений. Гринч / The Grinch [мультфильм, фэнтези, комедия, 2018] Blu-ray EUR 1080p, Dub [Лицензия]

salma3

0 | 0

36.4 ГБ

В этой теме нет новых непрочитанных сообщений. Ральф против интернета / Ralph Breaks the Internet [Мультфильм, фэнтези, комедия, 2018] BDRip 1080p, Dub [Лицензия] [3D-Video]

salma3

0 | 0

8.59 ГБ


СообщениеДобавлено: 07 дек 2019, 09:47 

Не в сети
Аватара пользователя
Дата регистрации:
05 сен 2019, 19:34
Возраст: 45
Спасибо: 0 / 0
Сообщения: 2
Откуда: Afghanistan
You are not right. Let's discuss.


Скачать книги и аудио книги через торрент


Вернуться к началу
 Профиль Отправить личное сообщение  
 
Начать новую тему Ответить на тему  [ Сообщений: 2 ] 




Для Мосгорсуда, Роскомнадзора и рекламодателей:: rstracker[собака]yandex.ru
cron
cron