Торрент файл
скачать торрент магнет ссылка Добавлен: 05 июн 2019, 11:27
Размер: 6.95 ГБ
Сидеров: 0
Личеров: 0
Статус: (salma3)
Автор

СообщениеДобавлено: 05 июн 2019, 11:27 

Не в сети
Супермодератор
Аватара пользователя
Дата регистрации:
15 фев 2012, 16:44
Возраст: 30
Спасибо: 8093 / 2147
Сообщения: 92232
Год выхода: 2019
Жанр: Мультфильм, мюзикл, фэнтези
Режиссер: Майк Митчелл

Роли озвучивают: Крис Прэтт, Элизабет Бэнкс, Уилл Арнетт, Тиффани Хэддиш, Стефани Беатриз, Элисон Бри, Ник Офферман, Чарли Дэй, Майя Рудольф, Уилл Феррелл

О фильме:
Прошло пять лет с тех пор, как все было прекрасно, и теперь жители пластмассового мира столкнулись с новой невероятной угрозой — вторженцами LEGO DUPLO®, прибывшими из космоса и разрушающими всё на своем пути куда быстрее, чем герои могут построить вновь. В результате жёлтым человечкам приходится жить в мрачной постапокалиптике, но Эммет этого не замечает и продолжает радоваться жизни. Однажды появляется неуязвимый корабль-разведчик и утаскивает с собой выдающихся, по его мнению, героев — Люсю в том числе. Чтобы спасти друзей и восстановить гармонию во вселенной ЛЕГО, Эммет отправляется в необыкновенную галактику, где правит постоянно меняющая форму Королева, и всегда царит музыка.



Страна: Дания, Норвегия, Австралия, США
Продолжительность: 01:47:09
Перевод:Профессиональный (полное дублирование) Лицензия

Файл
Качество: BDRip 1080p
Контейнер: MKV
Формат 3D: Half OverUnder / Вертикальная анаморфная стереопара
Порядок ракурсов: левый ракурс первый]
Видео: AVC / 1920х1080p / 23,976 fps / 8000 kbps
Аудио:
2Русский / AC3 / 48 KHz / 5.1 ch / 448 Kbps Дубляж - BD CEE[/b]
3Украинский / AC3 / 48 KHz / 2 ch / 192 Kbps (Дубляж - iTunes[/i])
3Английский / AC3 / 48 KHz / 5.1 ch / 640 Kbps (Original - BD 3D US[/i])
Субтитры (SRT):
Вшитые (softsub):
#1Русские Форсированные [вер. Ash61] (включены по умолчанию)
#2Русские Полные
#3 Украински Форсированные
#4 EnglishFull
#5 EnglishSDH [BD 3D US]

Внешние (UTF-8):
#1 Русские Форсированные [вер. Ash61] (включены по умолчанию)
#2 Русские Полные
#3 Украинские Форсированные

General
Unique ID : 222475880018165276322308904315241109285 (0xA75F4BC19D93D7D09B9B643E30D01725)
Complete name : J:TheLegoMovie2.TheSecondPart(2019)3D-HOU(Ash61)TheLegoMovie2.TheSecondPart(2019)3D-HOU(Ash61).mkv
Format : Matroska
Format version : Version 2
File size : 6.95 GiB
Duration : 1h 47mn
Overall bit rate : 9 280 Kbps
Movie name : ЛЕГО Фильм 2 / The Lego Movie 2: The Second Part (2019) in 3D
Encoded date : UTC 2019-06-04 19:40:11
Writing application : mkvmerge v5.8.0 ('No Sleep / Pillow') built on Sep 2 2012 15:37:04
Writing library : libebml v1.2.3 + libmatroska v1.3.0

Video
ID : 1
Format : AVC
Format/Info : Advanced Video Codec
Format profile : High@L4.1
Format settings, CABAC : Yes
Format settings, ReFrames : 4 frames
Codec ID : V_MPEG4/ISO/AVC
Duration : 1h 47mn
Bit rate : 8 000 Kbps
Width : 1 920 pixels
Height : 1 080 pixels
Display aspect ratio : 16:9
Frame rate mode : Constant
Frame rate : 23.976 (24000/1001) fps
Color space : YUV
Chroma subsampling : 4:2:0
Bit depth : 8 bits
Scan type : Progressive
Bits/(Pixel*Frame) : 0.161
Stream size : 5.85 GiB (84%)
Title : BDRip by Ash61
Writing library : x264 core 146 r2538 121396c
Encoding settings : cabac=1 / ref=4 / deblock=1:-3:-3 / analyse=0x3:0x113 / me=umh / subme=10 / psy=1 / psy_rd=1.00:0.00 / mixed_ref=1 / me_range=32 / chroma_me=1 / trellis=2 / 8x8dct=1 / cqm=0 / deadzone=21,11 / fast_pskip=0 / chroma_qp_offset=-2 / threads=12 / lookahead_threads=3 / sliced_threads=0 / nr=0 / decimate=0 / interlaced=0 / bluray_compat=0 / constrained_intra=0 / bframes=12 / b_pyramid=2 / b_adapt=2 / b_bias=0 / direct=3 / weightb=1 / open_gop=0 / weightp=2 / keyint=250 / keyint_min=23 / scenecut=40 / intra_refresh=0 / rc_lookahead=60 / rc=2pass / mbtree=0 / bitrate=8000 / ratetol=1.0 / qcomp=0.70 / qpmin=0 / qpmax=69 / qpstep=4 / cplxblur=20.0 / qblur=0.5 / vbv_maxrate=40000 / vbv_bufsize=30000 / nal_hrd=none / filler=0 / frame-packing=4 / ip_ratio=1.40 / pb_ratio=1.30 / aq=1:0.70
Language : English
Default : Yes
Forced : No

Audio #1
ID : 2
Format : AC-3
Format/Info : Audio Coding 3
Mode extension : CM (complete main)
Format settings, Endianness : Big
Codec ID : A_AC3
Duration : 1h 47mn
Bit rate mode : Constant
Bit rate : 448 Kbps
Channel(s) : 6 channels
Channel positions : Front: L C R, Side: L R, LFE
Sampling rate : 48.0 KHz
Frame rate : 31.250 fps (1536 spf)
Compression mode : Lossy
Stream size : 343 MiB (5%)
Title : Дубляж (BD CEE)
Language : Russian
Default : Yes
Forced : No

Audio #2
ID : 3
Format : AC-3
Format/Info : Audio Coding 3
Mode extension : CM (complete main)
Format settings, Endianness : Big
Codec ID : A_AC3
Duration : 1h 47mn
Bit rate mode : Constant
Bit rate : 192 Kbps
Channel(s) : 2 channels
Channel positions : Front: L R
Sampling rate : 48.0 KHz
Frame rate : 31.250 fps (1536 spf)
Compression mode : Lossy
Stream size : 147 MiB (2%)
Title : Дубляж (iTunes)
Language : Ukrainian
Default : No
Forced : No

Audio #3
ID : 4
Format : AC-3
Format/Info : Audio Coding 3
Mode extension : CM (complete main)
Format settings, Endianness : Big
Codec ID : A_AC3
Duration : 1h 47mn
Bit rate mode : Constant
Bit rate : 640 Kbps
Channel(s) : 6 channels
Channel positions : Front: L C R, Side: L R, LFE
Sampling rate : 48.0 KHz
Frame rate : 31.250 fps (1536 spf)
Compression mode : Lossy
Stream size : 491 MiB (7%)
Title : Original (BD 3D US)
Language : English
Default : No
Forced : No

Text #1
ID : 5
Format : UTF-8
Codec ID : S_TEXT/UTF8
Codec ID/Info : UTF-8 Plain Text
Title : Форсированные (вер. Ash61)
Language : Russian
Default : Yes
Forced : No

Text #2
ID : 6
Format : UTF-8
Codec ID : S_TEXT/UTF8
Codec ID/Info : UTF-8 Plain Text
Title : Полные
Language : Russian
Default : No
Forced : No

Text #3
ID : 7
Format : UTF-8
Codec ID : S_TEXT/UTF8
Codec ID/Info : UTF-8 Plain Text
Title : Форсированные
Language : Ukrainian
Default : No
Forced : No

Text #4
ID : 8
Format : UTF-8
Codec ID : S_TEXT/UTF8
Codec ID/Info : UTF-8 Plain Text
Title : Full
Language : English
Default : No
Forced : No

Text #5
ID : 9
Format : UTF-8
Codec ID : S_TEXT/UTF8
Codec ID/Info : UTF-8 Plain Text
Title : SDH
Language : English
Default : No
Forced : No

Menu
00:00:00.000 : :1
00:04:15.881 : :2
00:12:35.046 : :3
00:15:09.951 : :4
00:21:57.733 : :5
00:29:50.330 : :6
00:36:22.680 : :7
00:44:47.977 : :8
00:50:50.506 : :9
00:57:05.255 : :10
01:01:07.163 : :11
01:09:48.351 : :12
01:17:31.939 : :13
01:21:58.122 : :14
01:26:49.538 : :15
01:34:06.266 : :16
01:38:30.571 : :17
















_________________
Проголосуй за трекер Открытый торрент трекер - RUS-MEDIA.ORG

Проголосуй Открытый торрент трекер - RUS-MEDIA.ORG


Книжный торрент трекер



Вернуться к началу
 Профиль Отправить личное сообщение  
 
   Похожие торренты   Автор   Торрент   Размер 
В этой теме нет новых непрочитанных сообщений. ЛЕГО Фильм-2 / The Lego Movie 2: The Second Part [Мультфильм, мюзикл, фэнтези, 2019] BDRip 1080p, Dub [Лицензия]

salma3

0 | 0

10.27 ГБ

В этой теме нет новых непрочитанных сообщений. ЛЕГО Фильм-2 / The Lego Movie 2: The Second Part [Мультфильм, мюзикл, фэнтези, 2019] BDRip-AVC, Dub [Лицензия]

salma3

0 | 0

1.67 ГБ

В этой теме нет новых непрочитанных сообщений. ЛЕГО Фильм-2 / The Lego Movie 2: The Second Part [Мультфильм, мюзикл, фэнтези, 2019] BDRip, Dub [Лицензия]

salma3

0 | 0

1.46 ГБ

В этой теме нет новых непрочитанных сообщений. ЛЕГО Фильм-2 / The Lego Movie 2: The Second Part [Мультфильм, мюзикл, фэнтези, 2019] BDRip 720p, Dub [Лицензия]

salma3

0 | 0

5.63 ГБ

В этой теме нет новых непрочитанных сообщений. ЛЕГО Фильм-2 / The Lego Movie 2: The Second Part [Мультфильм, мюзикл, фэнтези, 2019] BDRip-AVC, Dub [iTunes]

salma3

0 | 1

1.63 ГБ

В этой теме нет новых непрочитанных сообщений. Лего Фильм: Бэтмен / The LEGO Batman Movie [Мультфильм, фэнтези, боевик, 2017] Blu-Ray CEE 1080p, Dub [3D-Video] [Лицензия]

salma3

25 | 33

35.05 ГБ

В этой теме нет новых непрочитанных сообщений. ЛЕГО Ниндзяго Фильм / The LEGO Ninjago Movie [Мультфильм, боевик, комедия, 2017] BDRemux 1080p, Dub [Лицензия] [3D-Video]

salma3

0 | 0

25.93 ГБ


Начать новую тему Ответить на тему  [ 1 сообщение ] 




Для Мосгорсуда, Роскомнадзора и рекламодателей:: mosgorsud-torrent[собачка]yandex.ru
cron