Торрент файл
скачать торрент магнет ссылка Добавлен: 10 июл 2017, 11:58
Размер: 7.26 ГБ
Сидеров: 85
Личеров: 48
Автор

СообщениеДобавлено: 10 июл 2017, 11:58 

Не в сети
Супермодератор
Аватара пользователя
Дата регистрации:
15 фев 2012, 16:44
Возраст: 28
Спасибо: 6471 / 2129
Сообщения: 40974
Год выхода: 2017
Жанр: Мультфильм, фэнтези, комедия
Режиссер: Келли Эсбёри

В ролях: Ариэль Уинтер, Джо Манганьелло, Мишель Родригес, Джулия Робертс, Элли Кемпер, Мэнди Пэтинкин, Рэйн Уилсон, Деми Ловато, Джейк Джонсон, Джек МакБрайер

О фильме:
Смурфетта и её лучшие друзья, Умник, Растяпа и Силач, отправляются на поиски таинственной затерянной деревни, стремясь опередить злобного волшебника Гаргамеля. В пути смурфиков ожидают невероятные опасности и головокружительные приключения, но игра стоит свеч, ведь в конечном итоге герои смогут разгадать самую большую загадку в истории своего существования



Страна: США
Продолжительность: 01:29:46
Перевод: Дублированный | iTunes

Файл
Качество: BDRip 1080p
Видео: MPEG-4 AVC, 1920x1080, 10.1 Mbit/s, 23.976 fps
Аудио #01: 48 kHz, AC3, 5.1, 384 Kbps | Дублированный | iTunes | RUS |
Аудио #02: 48 kHz, DTS, 5.1, 1510 Kbps | Оригинал | ENG |
Субтитры: Русские, английские

Формат 3D: Anamorph SideBySide - Горизонтальная анаморфная стереопара.
Порядок ракурсов: левый ракурс первый

General
Unique ID : 220184096407673750064484183399362103693 (0xA5A5EA19B80679138EB4E729AFDE898D)
Complete name : F:VideoSmurfs.The.Lost.Village.2017.3D.HSBS.BDRip.1080p.ExKinoRay.mkv
Format : Matroska
Format version : Version 4 / Version 2
File size : 7.26 GiB
Duration : 1 h 29 min
Overall bit rate : 11.6 Mb/s
Encoded date : UTC 2017-07-08 10:51:09
Writing application : mkvmerge v13.0.0 ('The Juggler') 64bit
Writing library : libebml v1.3.4 + libmatroska v1.4.5
Video
ID : 1
Format : AVC
Format/Info : Advanced Video Codec
Format profile : High@L4.1
Format settings, CABAC : Yes
Format settings, ReFrames : 4 frames
Codec ID : V_MPEG4/ISO/AVC
Duration : 1 h 29 min
Bit rate : 10.1 Mb/s
Width : 1 920 pixels
Height : 1 080 pixels
Display aspect ratio : 16:9
Frame rate mode : Constant
Frame rate : 23.976 (24000/1001) FPS
Color space : YUV
Chroma subsampling : 4:2:0
Bit depth : 8 bits
Scan type : Progressive
Bits/(Pixel*Frame) : 0.203
Stream size : 6.07 GiB (84%)
Writing library : x264 core 148 r2744 b97ae06
Encoding settings : cabac=1 / ref=4 / deblock=1:-2:-2 / analyse=0x3:0x133 / me=umh / subme=11 / psy=1 / psy_rd=1.05:0.05 / mixed_ref=1 / me_range=32 / chroma_me=1 / trellis=2 / 8x8dct=1 / cqm=0 / deadzone=21,11 / fast_pskip=0 / chroma_qp_offset=-3 / threads=12 / lookahead_threads=2 / sliced_threads=0 / nr=0 / decimate=0 / interlaced=0 / bluray_compat=0 / constrained_intra=0 / bframes=8 / b_pyramid=2 / b_adapt=2 / b_bias=0 / direct=3 / weightb=1 / open_gop=0 / weightp=2 / keyint=240 / keyint_min=24 / scenecut=40 / intra_refresh=0 / rc_lookahead=40 / rc=2pass / mbtree=0 / bitrate=10100 / ratetol=1.0 / qcomp=0.60 / qpmin=0 / qpmax=69 / qpstep=4 / cplxblur=20.0 / qblur=0.5 / vbv_maxrate=50000 / vbv_bufsize=62500 / nal_hrd=none / filler=0 / frame-packing=3 / ip_ratio=1.40 / pb_ratio=1.30 / aq=2:0.80
Language : English
Default : Yes
Forced : No
Audio #1
ID : 2
Format : AC-3
Format/Info : Audio Coding 3
Format settings, Endianness : Big
Codec ID : A_AC3
Duration : 1 h 29 min
Bit rate mode : Constant
Bit rate : 384 kb/s
Channel(s) : 6 channels
Channel positions : Front: L C R, Side: L R, LFE
Sampling rate : 48.0 kHz
Frame rate : 31.250 FPS (1536 spf)
Bit depth : 16 bits
Compression mode : Lossy
Stream size : 247 MiB (3%)
Title : iTunes
Language : Russian
Service kind : Complete Main
Default : Yes
Forced : No
Audio #2
ID : 3
Format : DTS
Format/Info : Digital Theater Systems
Mode : 16
Format settings, Endianness : Big
Codec ID : A_DTS
Duration : 1 h 29 min
Bit rate mode : Constant
Bit rate : 1 509 kb/s
Channel(s) : 6 channels
Channel positions : Front: L C R, Side: L R, LFE
Sampling rate : 48.0 kHz
Frame rate : 93.750 FPS (512 spf)
Bit depth : 24 bits
Compression mode : Lossy
Stream size : 969 MiB (13%)
Title : Original
Language : English
Default : No
Forced : No
Text #1
ID : 4
Format : UTF-8
Codec ID : S_TEXT/UTF8
Codec ID/Info : UTF-8 Plain Text
Duration : 3 s 379 ms
Bit rate : 127 b/s
Count of elements : 1
Stream size : 54.0 Bytes (0%)
Title : Forced
Language : Russian
Default : Yes
Forced : No
Text #2
ID : 5
Format : UTF-8
Codec ID : S_TEXT/UTF8
Codec ID/Info : UTF-8 Plain Text
Duration : 1 h 28 min
Bit rate : 91 b/s
Count of elements : 1099
Stream size : 59.5 KiB (0%)
Title : Full
Language : Russian
Default : No
Forced : No
Text #3
ID : 6
Format : UTF-8
Codec ID : S_TEXT/UTF8
Codec ID/Info : UTF-8 Plain Text
Duration : 1 h 25 min
Bit rate : 56 b/s
Count of elements : 1094
Stream size : 35.0 KiB (0%)
Title : Full
Language : English
Default : No
Forced : No
Text #4
ID : 7
Format : UTF-8
Codec ID : S_TEXT/UTF8
Codec ID/Info : UTF-8 Plain Text
Duration : 1 h 28 min
Bit rate : 77 b/s
Count of elements : 1753
Stream size : 50.1 KiB (0%)
Title : SDH
Language : English
Default : No
Forced : No
Text #5
ID : 8
Format : UTF-8
Codec ID : S_TEXT/UTF8
Codec ID/Info : UTF-8 Plain Text
Duration : 1 h 29 min
Bit rate : 113 b/s
Count of elements : 1755
Stream size : 74.8 KiB (0%)
Title : SDH (Colored)
Language : English
Default : No
Forced : No
Menu
00:00:00.000 : en:00:00:00.000
00:08:48.445 : en:00:08:48.445
00:11:03.413 : en:00:11:03.413
00:14:33.748 : en:00:14:33.748
00:21:21.071 : en:00:21:21.071
00:27:25.143 : en:00:27:25.143
00:30:33.540 : en:00:30:33.540
00:36:49.082 : en:00:36:49.082
00:42:41.350 : en:00:42:41.350
00:45:58.673 : en:00:45:58.673
00:50:35.950 : en:00:50:35.950
00:55:41.964 : en:00:55:41.964
00:57:03.587 : en:00:57:03.587
01:02:35.293 : en:01:02:35.293
01:09:07.769 : en:01:09:07.769
01:14:39.475 : en:01:14:39.475
01:19:34.478 : en:01:19:34.478

Релиз от: Автор релиза:


_________________
Проголосуй за трекер Открытый торрент трекер - RUS-MEDIA.ORG

Проголосуй Открытый торрент трекер - RUS-MEDIA.ORG



реклама партнёра


Вернуться к началу
 Профиль Отправить личное сообщение  
 
   Похожие торренты   Автор   Торрент   Размер 
В этой теме нет новых непрочитанных сообщений. Смурфики: Затерянная деревня / Smurfs: The Lost Village [мультфильм, фэнтези, комедия, 2017] Blu-Ray CEE 1080p, Dub [Лицензия]

salma3

6 | 22

32.78 ГБ

В этой теме нет новых непрочитанных сообщений. Смурфики: Затерянная деревня / Smurfs: The Lost Village [Мультфильм, фэнтези, комедия, 2017] BDRip, Dub [Лицензия]

salma3

613 | 54

1.46 ГБ

В этой теме нет новых непрочитанных сообщений. Смурфики: Затерянная деревня / Smurfs: The Lost Village [Мультфильм, фэнтези, комедия, 2017] BDRip 720p, Dub [Лицензия]

salma3

68 | 15

6.18 ГБ

В этой теме нет новых непрочитанных сообщений. Смурфики: Затерянная деревня / Smurfs: The Lost Village [мультфильм, фэнтези, комедия, 2017] TS, Dub

salma3

3253 | 303

1.37 ГБ

В этой теме нет новых непрочитанных сообщений. Смурфики 2 / The Smurfs 2 [мультфильм, фэнтези, комедия, 2013] BDRip 2160p, Dub

salma3

2 | 3

34.61 ГБ

В этой теме нет новых непрочитанных сообщений. Семейка монстров / The Boxtroll [мультфильм, фэнтези, комедия, приключения, семейный, 2014] BDRip 1080p, Dub [3D-Video | iTunes]

Dracon

29 | 6

8.33 ГБ

В этой теме нет новых непрочитанных сообщений. Аисты / Storks ( Мультфильм, Фэнтези, Комедия, Приключения, Семейный, 2016) BDRip 1080p от Ash61 | 3D-Video | halfOU | iTunes

marya111

129 | 91

9.19 ГБ


Начать новую тему Ответить на тему  [ 1 сообщение ] 




Для Мосгорсуда, Роскомнадзора и рекламодателей:: mosgorsud-torrent[собачка]yandex.ru