Торрент файл
скачать торрент магнет ссылка Добавлен: 03 ноя 2016, 13:56
Размер: 9.06 ГБ
Сидеров: 231
Личеров: 79
Статус: (salma3)
Автор

СообщениеДобавлено: 03 ноя 2016, 13:56 

Не в сети
Супермодератор
Аватара пользователя
Дата регистрации:
15 фев 2012, 16:44
Возраст: 28
Спасибо: 6643 / 2146
Сообщения: 45809
Год выхода: 2016
Жанр: Мультфильм, фантастика, комедия
Режиссер: Майк Тёрмайер, Гален Т. Чу

Роли озвучивают: Ник Офферман, Адам Дивайн, Саймон Пегг, Дженнифер Лопез, Мелисса Рауш, Стефани Беатриз, Джон Легуизамо, Макс Гринфилд, Шонн Уильям Скотт, Дэнис Лири

О фильме:
Отчаянная погоня за неуловимым желудем катапультирует Скрата прямо в космос, где он случайно запускает целую серию космических событий. Именно они изменят весь мир Ледникового периода и станут реальной угрозой для него. Чтобы спастись, Сид, Мэнни, Диего и остальные звери должны покинуть свои дома, отправиться в забавное и захватывающее приключение в экзотические новые земли и встретиться со множеством красочных новых персонажей.



Страна: США
Продолжительность: 01:56:39
Перевод: Профессиональный (полное дублирование)[BD EUR]

Файл
Качество: BDRip 1080p
Кодек: x264
Видео: AVC / 1920x1080p / 16:9 / 23,976 fps / 11,0 Мbps / 0.221 bit/pix
Аудио 1: Русский / DTS / 48 KHz / 5.1 ch / 768 Kbps / Профессиональный (полное дублирование) / Blu-ray EUR
Аудио 2: Украинский / AC3 / 48 KHz / 5.1 ch / 448 Kbps / Профессиональный (полное дублирование) / Blu-ray EUR
Аудио 3: Английский / DTS / 48 KHz / 5.1 ch / 1509 Kbps
Субтитры : Russian (Forced, iTunes), Russian (iTunes), Ukrainian (Forced, iTunes), Ukrainian (iTunes), English (iTunes)
Формат 3D: Half SideBySide / Горизонтальная анаморфная стереопара
Порядок ракурсов: левый ракурс первый
Общее
Уникальный идентификатор : 230310983403372068185297764457250620240 (0xAD44482D994B7F74ADE66DBC42ED0350)
Полное имя :Ice.Age.Collision.Course.2016.1080p.3D.BluRay.Half-SBS.Rus.Ukr.Eng.HDCLUB.mkv
Формат : Matroska
Версия формата : Version 2
Размер файла : 9,06 Гбайт
Продолжительность : 1 ч. 34 м.
Общий поток : 13,7 Мбит/сек
Название фильма : Ice Age: Collision Course (2016) [3D] - Release for HDCLUB
Дата кодирования : UTC 2016-11-02 13:52:18
Программа кодирования : mkvmerge v3.4.0 ('Rapunzel') built on May 15 2010 09:38:20
Библиотека кодирования : libebml v0.8.0 + libmatroska v0.9.0
Видео
Идентификатор : 1
Формат : AVC
Формат/Информация : Advanced Video Codec
Профиль формата : High@L4.1
Параметр CABAC формата : Да
Параметр ReFrames формата : 4 кадра
Идентификатор кодека : V_MPEG4/ISO/AVC
Продолжительность : 1 ч. 34 м.
Битрейт : 11,0 Мбит/сек
Ширина : 1920 пикселей
Высота : 1080 пикселей
Соотношение сторон : 16:9
Режим частоты кадров : Постоянный
Частота кадров : 23,976 кадра/сек
Цветовое пространство : YUV
Субдискретизация насыщенности : 4:2:0
Битовая глубина : 8 бит
Тип развёртки : Прогрессивная
Бит/(Пиксели*Кадры) : 0.221
Размер потока : 7,08 Гбайт (78%)
Заголовок : Ice Age: Collision Course (2016) [3D] - Release for HDCLUB
Библиотека кодирования : x264 core 148 r2705 3f5ed56
Настройки программы : cabac=1 / ref=4 / deblock=1:-3:-3 / analyse=0x3:0x133 / me=umh / subme=11 / psy=1 / psy_rd=0.90:0.00 / mixed_ref=1 / me_range=32 / chroma_me=1 / trellis=2 / 8x8dct=1 / cqm=0 / deadzone=21,11 / fast_pskip=0 / chroma_qp_offset=-2 / threads=18 / lookahead_threads=3 / sliced_threads=0 / slices=4 / nr=0 / decimate=0 / interlaced=0 / bluray_compat=0 / constrained_intra=0 / bframes=8 / b_pyramid=2 / b_adapt=2 / b_bias=0 / direct=3 / weightb=1 / open_gop=0 / weightp=2 / keyint=250 / keyint_min=23 / scenecut=40 / intra_refresh=0 / rc_lookahead=40 / rc=2pass / mbtree=0 / bitrate=11000 / ratetol=1.0 / qcomp=0.65 / qpmin=0 / qpmax=51 / qpstep=4 / cplxblur=20.0 / qblur=0.5 / vbv_maxrate=62500 / vbv_bufsize=78125 / nal_hrd=none / filler=0 / ip_ratio=1.40 / pb_ratio=1.30 / aq=3:0.75
Язык : English
Default : Да
Forced : Нет
Аудио #1
Идентификатор : 2
Формат : DTS
Формат/Информация : Digital Theater Systems
Режим : 16
Параметр Endianness формата : Big
Идентификатор кодека : A_DTS
Продолжительность : 1 ч. 34 м.
Вид битрейта : Постоянный
Битрейт : 768 Кбит/сек
Каналы : 6 каналов
Расположение каналов : Front: L C R, Side: L R, LFE
Частота : 48,0 КГц
Битовая глубина : 24 бит
Метод сжатия : С потерями
Размер потока : 519 Мбайт (6%)
Заголовок : DTS 5.1 @ 768 kbps - DUB, Blu-ray EUR
Язык : Russian
Default : Да
Forced : Нет
Аудио #2
Идентификатор : 3
Формат : AC-3
Формат/Информация : Audio Coding 3
Расширение режима : CM (complete main)
Параметр Endianness формата : Big
Идентификатор кодека : A_AC3
Продолжительность : 1 ч. 34 м.
Вид битрейта : Постоянный
Битрейт : 448 Кбит/сек
Каналы : 6 каналов
Расположение каналов : Front: L C R, Side: L R, LFE
Частота : 48,0 КГц
Метод сжатия : С потерями
Размер потока : 303 Мбайт (3%)
Заголовок : AC3 5.1 @ 448 kbps - DUB, Blu-ray EUR
Язык : Ukrainian
Default : Нет
Forced : Нет
Аудио #3
Идентификатор : 4
Формат : DTS
Формат/Информация : Digital Theater Systems
Профиль формата : ES
Режим : 16
Параметр Endianness формата : Big
Идентификатор кодека : A_DTS
Продолжительность : 1 ч. 34 м.
Вид битрейта : Постоянный
Битрейт : 1509 Кбит/сек
Каналы : 6 каналов
Расположение каналов : Front: L C R, Side: L R, LFE
Частота : 48,0 КГц
Битовая глубина : 24 бит
Метод сжатия : С потерями
Задержка видео : 11 мс.
Размер потока : 1020 Мбайт (11%)
Заголовок : DTS-ES 5.1 @ 1536 kbps
Язык : English
Default : Нет
Forced : Нет
Текст #1
Идентификатор : 5
Формат : UTF-8
Идентификатор кодека : S_TEXT/UTF8
Идентификатор кодека/Информация : UTF-8 Plain Text
Заголовок : Forced, iTunes
Язык : Russian
Default : Да
Forced : Нет
Текст #2
Идентификатор : 6
Формат : UTF-8
Идентификатор кодека : S_TEXT/UTF8
Идентификатор кодека/Информация : UTF-8 Plain Text
Заголовок : iTunes
Язык : Russian
Default : Нет
Forced : Нет
Текст #3
Идентификатор : 7
Формат : UTF-8
Идентификатор кодека : S_TEXT/UTF8
Идентификатор кодека/Информация : UTF-8 Plain Text
Заголовок : Forced, iTunes
Язык : Ukrainian
Default : Нет
Forced : Нет
Текст #4
Идентификатор : 8
Формат : UTF-8
Идентификатор кодека : S_TEXT/UTF8
Идентификатор кодека/Информация : UTF-8 Plain Text
Заголовок : iTunes
Язык : Ukrainian
Default : Нет
Forced : Нет
Текст #5
Идентификатор : 9
Формат : UTF-8
Идентификатор кодека : S_TEXT/UTF8
Идентификатор кодека/Информация : UTF-8 Plain Text
Заголовок : iTunes
Язык : English
Default : Нет
Forced : Нет
Меню
00:00:00.000 : en:1
00:03:09.104 : en:2
00:05:24.365 : en:3
00:09:06.086 : en:4
00:13:22.301 : en:5
00:18:05.750 : en:6
00:20:50.583 : en:7
00:23:10.306 : en:8
00:27:29.896 : en:9
00:30:15.980 : en:10
00:32:54.346 : en:11
00:36:13.588 : en:12
00:39:33.454 : en:13
00:42:58.701 : en:14
00:47:35.018 : en:15
00:51:11.735 : en:16
00:55:50.764 : en:17
01:01:09.456 : en:18
01:05:06.402 : en:19
01:09:39.300 : en:20
01:14:36.889 : en:21
01:17:41.532 : en:22
01:21:43.064 : en:23
01:24:46.497 : en:24

Релиз от:


_________________
Проголосуй за трекер Открытый торрент трекер - RUS-MEDIA.ORG

Проголосуй Открытый торрент трекер - RUS-MEDIA.ORG



реклама партнёра


Вернуться к началу
 Профиль Отправить личное сообщение  
 
   Похожие торренты   Автор   Торрент   Размер 
В этой теме нет новых непрочитанных сообщений. Ледниковый период: Столкновение неизбежно / Ice Age: Collision Cours [мультфильм, фантастика, комедия, приключения, семейный, 2016] BDRip 1080p, Dub [Лицензия]

salma3

165 | 90

7.79 ГБ

В этой теме нет новых непрочитанных сообщений. Ледниковый период: Столкновение неизбежно / Ice Age: Collision Course [мультфильм, фантастика, комедия, 2016] BDRip-AVC, Dub [Лицензия]

salma3

142 | 53

1.46 ГБ

В этой теме нет новых непрочитанных сообщений. Ледниковый период: Столкновение неизбежно / Ice Age: Collision Course (Мультфильм, полнометражный, комедия, приключения, семейный, 2016) BDRemux 1080p от ExKinoRay | 3D-Video | Лицензия

marya111

5 | 1

31.37 ГБ

В этой теме нет новых непрочитанных сообщений. Ледниковый период: Столкновение неизбежно / Ice Age: Collision Course [Мультфильм, полнометражный, комедия, 2016] BDRip, Dub [Лицензия]

salma3

169 | 37

1.46 ГБ

В этой теме нет новых непрочитанных сообщений. Ледниковый период: Столкновение неизбежно / Ice Age: Collision Course [Мультфильм, полнометражный, комедия, 2016] BDRemux 1080p, Dub [Лицензия]

salma3

26 | 36

20.27 ГБ

В этой теме нет новых непрочитанных сообщений. Ледниковый период: Столкновение неизбежно / Ice Age: Collision Course [Мультфильм, комедия, приключения, семейный, 2016] BDRip 720p, Dub [Лицензия]

salma3

4 | 5

5.05 ГБ

В этой теме нет новых непрочитанных сообщений. Ледниковый период: Столкновение неизбежно ( Мультфильм, Фантастика, Комедия, Приключения, Семейный, 2016) BDRip 1080p от Ash61 | 3D-Video | halfOU | iTunes

marya111

155 | 10

8.29 ГБ


Начать новую тему Ответить на тему  [ 1 сообщение ] 




Для Мосгорсуда, Роскомнадзора и рекламодателей:: mosgorsud-torrent[собачка]yandex.ru