Торрент файл
скачать торрент магнет ссылка Добавлен: 02 сен 2016, 11:54
Размер: 5.53 ГБ
Сидеров: 5
Личеров: 4
Автор

СообщениеДобавлено: 02 сен 2016, 11:54 

Не в сети
Супермодератор
Аватара пользователя
Дата регистрации:
15 фев 2012, 16:44
Возраст: 27
Спасибо: 5384 / 2095
Сообщения: 19371
Год выпуска: 2015
Страна: Гонконг, Канада, США (CMG, DOXO, CNHK, Blockade Entertainment, Rainmaker)
Жанр: Мультфильм, Фантастика, Боевик
Продолжительность: 01:34:05
Перевод: Профессиональный дублированный - iTunes
Режиссеры: Кевин Манро, Джерика Клилэнд / Kevin Munroe, Jericca Cleland


озвучивали (дублировали):[/font]

Ratchet - Джеймс Арнольд Тейлор (Николай Быстров)
Clank - Дэвид Кэй (Дмитрий Филимонов)
Captain Qwark - Джим Уорд (Сергей Чихачев)
Blargs / Blargian PR Man - Йен Джеймс Корлетт
Zed / Blarg - Эндрю Каунден
Elaris - Розарио Доусон
Dallas Wannamaker / Announcer / Drek Computer - Брайан Добсон
Inspectobot / Warbot / Zurkons - Брайан Драммонд
Chairman Drek - Пол Джаматти
Grimroth - Джон Гудман
Victor Von Ion - Сильвестр Сталлоне
Также роли дублировали: Денис Строев, Дмитрий Поляновский, Илья Исаев, Сергей Смирнов, Татьяна Шитова, Константин Карасик



Описание: Большеухий ловкач Рэтчет всегда мечтал присоединиться к Галактическим космическим рейнджерам, но самовлюбленный супергерой Капитан Кварк не принимает его в команду. И все же, когда робот Кланк приносит весть о коварном плане злодея Дрека из расы Блэрг создать новую планету для своего вида, предварительно избавившись от рейнджеров и уничтожив Солнечную систему, миссия по спасению галактики ложится именно на пушистые плечи остряка Рэтчета. А металлический Кланк становится его верным спутником и помощником.


Доп.инфо: Мультфильм создан на основе серии игр для PlayStation.
3Д в основном мелкое.


Премьера: 13 апреля 2016 (5 мая 2016)
Бюджет: $20 000 000






Качество: BDRip (by Ash61) [с BD 3D Fre]
Контейнер: MKV
Формат 3D: Half OverUnder / Вертикальная анаморфная стереопара
Порядок ракурсов: левый ракурс первый


Видео: AVC / 1920х1080p / 23,976 fps / 7029 Kbps
Аудио:
#1 - Русский / AC3 / 48 KHz / 5.1 ch / 384 Kbps (Дубляж - iTunes)
#2 - Украинский / AC3 / 48 KHz / 2 ch / 192 Kbps (Дубляж - iTunes)
#3 - Английский / AC3 / 48 KHz / 5.1 ch / 640 Kbps (Original - BD 3D Fre)
Субтитры: Внешние (SRT UTF-8) English Full
General
Unique ID : 175502132733954482402700278372902881065 (0x84087B34BF633D03831BC265930BC729)
Complete name : E:Ratchet&Clank(2016)3D-halfOU(Ash61)iTunesRatchet&Clank(2016)3D-halfOU(Ash61)iTunes.mkv
Format : Matroska
Format version : Version 2
File size : 5.53 GiB
Duration : 1h 34mn
Overall bit rate : 8 412 Kbps
Movie name : Рэтчет и Кланк: Галактические рейнджеры / Ratchet & Clank (2016) в 3Д
Encoded date : UTC 2016-08-28 21:40:49
Writing application : mkvmerge v5.8.0 ('No Sleep / Pillow') built on Sep 2 2012 15:37:04
Writing library : libebml v1.2.3 + libmatroska v1.3.0
Video
ID : 1
Format : AVC
Format/Info : Advanced Video Codec
Format profile : High@L4.1
Format settings, CABAC : Yes
Format settings, ReFrames : 4 frames
Codec ID : V_MPEG4/ISO/AVC
Duration : 1h 34mn
Bit rate : 7 029 Kbps
Width : 1 920 pixels
Height : 1 080 pixels
Display aspect ratio : 16:9
Frame rate mode : Constant
Frame rate : 23.976 fps
Color space : YUV
Chroma subsampling : 4:2:0
Bit depth : 8 bits
Scan type : Progressive
Bits/(Pixel*Frame) : 0.141
Stream size : 4.62 GiB (84%)
Title : BDRip by Ash61 (from BD 3D Fre)
Writing library : x264 core 146 r2538 121396c
Encoding settings : cabac=1 / ref=4 / deblock=1:-3:-3 / analyse=0x3:0x113 / me=umh / subme=10 / psy=1 / psy_rd=1.00:0.00 / mixed_ref=1 / me_range=32 / chroma_me=1 / trellis=2 / 8x8dct=1 / cqm=0 / deadzone=21,11 / fast_pskip=1 / chroma_qp_offset=-2 / threads=12 / lookahead_threads=3 / sliced_threads=0 / nr=0 / decimate=1 / interlaced=0 / bluray_compat=0 / constrained_intra=0 / bframes=14 / b_pyramid=2 / b_adapt=2 / b_bias=0 / direct=3 / weightb=1 / open_gop=0 / weightp=2 / keyint=250 / keyint_min=23 / scenecut=40 / intra_refresh=0 / rc_lookahead=60 / rc=crf / mbtree=1 / crf=15.5 / qcomp=0.70 / qpmin=0 / qpmax=69 / qpstep=4 / vbv_maxrate=40000 / vbv_bufsize=30000 / crf_max=0.0 / nal_hrd=none / filler=0 / frame-packing=4 / ip_ratio=1.40 / aq=1:0.70
Language : English
Default : Yes
Forced : No
Audio #1
ID : 2
Format : AC-3
Format/Info : Audio Coding 3
Mode extension : CM (complete main)
Format settings, Endianness : Big
Codec ID : A_AC3
Duration : 1h 34mn
Bit rate mode : Constant
Bit rate : 384 Kbps
Channel(s) : 6 channels
Channel positions : Front: L C R, Side: L R, LFE
Sampling rate : 48.0 KHz
Bit depth : 16 bits
Compression mode : Lossy
Stream size : 258 MiB (5%)
Title : Дубляж - iTunes [Edit Ash61]
Language : Russian
Default : Yes
Forced : No
Audio #2
ID : 3
Format : AC-3
Format/Info : Audio Coding 3
Mode extension : CM (complete main)
Format settings, Endianness : Big
Codec ID : A_AC3
Duration : 1h 34mn
Bit rate mode : Constant
Bit rate : 192 Kbps
Channel(s) : 2 channels
Channel positions : Front: L R
Sampling rate : 48.0 KHz
Bit depth : 16 bits
Compression mode : Lossy
Stream size : 129 MiB (2%)
Title : Дубляж - iTunes [Edit Ash61]
Language : Ukrainian
Default : No
Forced : No
Audio #3
ID : 4
Format : AC-3
Format/Info : Audio Coding 3
Mode extension : CM (complete main)
Format settings, Endianness : Big
Codec ID : A_AC3
Duration : 1h 34mn
Bit rate mode : Constant
Bit rate : 640 Kbps
Channel(s) : 6 channels
Channel positions : Front: L C R, Side: L R, LFE
Sampling rate : 48.0 KHz
Bit depth : 16 bits
Compression mode : Lossy
Stream size : 431 MiB (8%)
Title : Original - BD 3D Fre
Language : English
Default : No
Forced : No
Menu
00:00:00.000 : : 1
00:05:50.350 : : 2
00:17:16.202 : : 3
00:26:05.689 : : 4
00:36:33.316 : : 5
00:43:46.624 : : 6
00:50:07.755 : : 7
00:56:50.407 : : 8
01:02:47.347 : : 9
01:09:23.284 : : 10
01:18:13.188 : : 11
01:23:10.194 : : 12
















_________________
Проголосуй за трекер Открытый торрент трекер - RUS-MEDIA.ORG

Не забудьте оставить комментарий!



реклама партнёра


Вернуться к началу
 Профиль Отправить личное сообщение  
 
   Похожие торренты   Автор   Торрент   Размер 
В этой теме нет новых непрочитанных сообщений. Рэтчет и Кланк: Галактические рейнджеры / Ratchet & Clank [Мультфильм, фантастика, боевик, комедия, приключения, 2015] BDRip, Dub [iTunes]

salma3

27 | 6

1.42 ГБ

В этой теме нет новых непрочитанных сообщений. Рэтчет и Кланк: Галактические рейнджеры / Ratchet & Clank [Мультфильм, полнометражный, семейный, 2015] BDRip 1080p, Dub [iTunes]

salma3

1 | 1

5.47 ГБ

В этой теме нет новых непрочитанных сообщений. Рэтчет и Кланк: Галактические рейнджеры / Ratchet & Clank (мультфильм, фантастика, боевик, комедия, приключения, семейный, 2015) BDRip-AVC от HELLYWOOD | iTunes

marya111

80 | 3

1.32 ГБ

В этой теме нет новых непрочитанных сообщений. Рэтчет и Кланк: Галактические рейнджеры / Ratchet & Clank [Мультфильм, полнометражный, семейный, 2015] BDRip 720p, Dub [iTunes]

salma3

0 | 1

5.15 ГБ

В этой теме нет новых непрочитанных сообщений. Пиксели / Pixels (Крис Коламбус) [фантастика, боевик, комедия, 2015] BDRip 1080p, Dub [3D-Video | iTunes]

Dracon

21 | 1

7.77 ГБ

В этой теме нет новых непрочитанных сообщений. Человек-муравей / Ant-Man (Пейтон Рид) [Фантастика, Боевик, Комедия, Приключения, 2015] BDRip 1080p, Dub+Sub [3D-Video | iTunes]

Dracon

1018 | 375

15.8 ГБ

В этой теме нет новых непрочитанных сообщений. Город героев / Big Hero 6 (Дон Холл, Крис Уильямс) [мультфильм, фантастика, комедия, семейный, боевик, 2014] BDRip 1080p, Dub+Sub [3D-Video | iTunes]

Dracon

144 | 9

5.17 ГБ


Начать новую тему Ответить на тему  [ 1 сообщение ] 




Для Мосгорсуда, Роскомнадзора и рекламодателей:: mosgorsud-torrent[собачка]yandex.ru