Торрент файл
скачать торрент магнет ссылка Добавлен: 02 мар 2015, 12:17
Размер: 7.3 ГБ
Сидеров: 81
Личеров: 3
Автор

СообщениеДобавлено: 02 мар 2015, 12:17 

Не в сети
Зам. Админа
Аватара пользователя
Дата регистрации:
02 дек 2010, 12:39
Спасибо: 12625 / 214
Сообщения: 28010
Год выпуска: 2014
Жанр: Мультфильм, комедия, приключения, семейный, полнометражный
Выпущено: США, DreamWorks Animation, Pacific Data Images (PDI)
Режиссер: Эрик Дарнелл, Саймон Дж. Смит
В ролях: Том МакГрат, Крис Миллер, Кристофер Найтс, Бенедикт Камбербэтч, Петер Стормаре, Джон Малкович, Кен Жонг, Аннет Махендру

О фильме: Сверхсекретные операции, железная дисциплина и выдержка, а главное, феноменальная находчивость — вот критерии успешной миссии, даже если она кажется невыполнимой.

Качество: BDRip (1080p)
Видео: MPEG-4 AVC, 9422 Кбит/с, 1920x1080, 23.976 кадр/с
Аудио: Русский, английский (АС3, 6 ch, 640 Кбит/с), украинский (АС3, 6 ch, 448 Кбит/с)
Размер: 7.3 ГБ
Продолжительность: 01:31:48
Перевод: Дублированный [лицензия]

Семпл
бщее
Уникальный идентификатор : 179098824836480818421159498933280376220 (0x86BD2DD15A379C279C163F986EEF059C)
Полное имя : F:my filmsPENGUINS_OF_MADAGASCAR_3D.mkv
Формат : Matroska
Версия формата : Version 2
Размер файла : 7,30 Гбайт
Продолжительность : 1 ч. 31 м.
Общий поток : 11,4 Мбит/сек
Название фильма : PENGUINS_OF_MADAGASCAR_3D_Half_O/U
Дата кодирования : UTC 2015-03-02 05:50:49
Программа кодирования : mkvmerge v5.3.0 ('I could have danced') built on Feb 9 2012 10:38:07
Библиотека кодирования : libebml v1.2.3 + libmatroska v1.3.0
Видео
Идентификатор : 1
Формат : AVC
Формат/Информация : Advanced Video Codec
Профиль формата : High@L4.1
Параметр CABAC формата : Да
Параметр ReFrames формата : 4 кадра
Идентификатор кодека : V_MPEG4/ISO/AVC
Продолжительность : 1 ч. 31 м.
Битрейт : 9422 Кбит/сек
Ширина : 1920 пикселей
Высота : 1080 пикселей
Соотношение сторон : 16:9
Режим частоты кадров : Постоянный
Частота кадров : 23,976 кадра/сек
Цветовое пространство : YUV
Субдискретизация насыщенности : 4:2:0
Битовая глубина : 8 бит
Тип развёртки : Прогрессивная
Бит/(Пиксели*Кадры) : 0.190
Размер потока : 6,04 Гбайт (83%)
Заголовок : Rip by I/N
Библиотека кодирования : x264 core 128 r2216M 198a7ea
Настройки программы : cabac=1 / ref=4 / deblock=1:-3:-3 / analyse=0x3:0x133 / me=umh / subme=10 / psy=1 / psy_rd=1.00:0.15 / mixed_ref=1 / me_range=32 / chroma_me=1 / trellis=2 / 8x8dct=1 / cqm=0 / deadzone=0,0 / fast_pskip=0 / chroma_qp_offset=-3 / threads=8 / lookahead_threads=1 / sliced_threads=0 / nr=0 / decimate=1 / interlaced=0 / bluray_compat=0 / constrained_intra=0 / bframes=8 / b_pyramid=2 / b_adapt=2 / b_bias=0 / direct=3 / weightb=1 / open_gop=0 / weightp=2 / keyint=230 / keyint_min=23 / scenecut=40 / intra_refresh=0 / rc_lookahead=60 / rc=crf / mbtree=1 / crf=17.0 / qcomp=0.60 / qpmin=0 / qpmax=69 / qpstep=4 / vbv_maxrate=40000 / vbv_bufsize=30000 / crf_max=30.0 / nal_hrd=none / ip_ratio=1.40 / aq=1:0.90
Default : Да
Forced : Нет
Аудио #1
Идентификатор : 2
Формат : AC-3
Формат/Информация : Audio Coding 3
Расширение режима : CM (complete main)
Параметр Endianness формата : Big
Идентификатор кодека : A_AC3
Продолжительность : 1 ч. 31 м.
Вид битрейта : Постоянный
Битрейт : 640 Кбит/сек
Каналы : 6 каналов
Расположение каналов : Front: L C R, Side: L R, LFE
Частота : 48,0 КГц
Битовая глубина : 16 бит
Метод сжатия : С потерями
Размер потока : 420 Мбайт (6%)
Заголовок : Дубляж
Язык : Russian
Default : Да
Forced : Нет
Аудио #2
Идентификатор : 3
Формат : AC-3
Формат/Информация : Audio Coding 3
Расширение режима : CM (complete main)
Параметр Endianness формата : Big
Идентификатор кодека : A_AC3
Продолжительность : 1 ч. 31 м.
Вид битрейта : Постоянный
Битрейт : 448 Кбит/сек
Каналы : 6 каналов
Расположение каналов : Front: L C R, Side: L R, LFE
Частота : 48,0 КГц
Битовая глубина : 16 бит
Метод сжатия : С потерями
Размер потока : 294 Мбайт (4%)
Заголовок : Дубляж
Язык : Ukrainian
Default : Нет
Forced : Нет
Аудио #3
Идентификатор : 4
Формат : AC-3
Формат/Информация : Audio Coding 3
Расширение режима : CM (complete main)
Параметр Endianness формата : Big
Идентификатор кодека : A_AC3
Продолжительность : 1 ч. 31 м.
Вид битрейта : Постоянный
Битрейт : 640 Кбит/сек
Каналы : 6 каналов
Расположение каналов : Front: L C R, Side: L R, LFE
Частота : 48,0 КГц
Битовая глубина : 16 бит
Метод сжатия : С потерями
Размер потока : 420 Мбайт (6%)
Заголовок : Original
Язык : English
Default : Нет
Forced : Нет
Меню
00:00:00.000 : en:00:00:00.000
00:03:38.718 : en:00:03:38.718
00:07:27.739 : en:00:07:27.739
00:09:24.272 : en:00:09:24.272
00:12:10.521 : en:00:12:10.521
00:16:09.302 : en:00:16:09.302
00:19:22.453 : en:00:19:22.453
00:23:05.509 : en:00:23:05.509
00:26:58.659 : en:00:26:58.659
00:29:01.323 : en:00:29:01.323
00:30:36.418 : en:00:30:36.418
00:34:01.206 : en:00:34:01.206
00:38:05.992 : en:00:38:05.992
00:41:31.197 : en:00:41:31.197
00:44:25.162 : en:00:44:25.162
00:46:39.880 : en:00:46:39.880
00:49:12.950 : en:00:49:12.950
00:54:31.560 : en:00:54:31.560
00:56:01.066 : en:00:56:01.066
01:00:04.017 : en:01:00:04.017
01:03:07.242 : en:01:03:07.242
01:06:41.998 : en:01:06:41.998
01:09:52.271 : en:01:09:52.271
01:12:10.409 : en:01:12:10.409
01:14:19.914 : en:01:14:19.914
01:15:59.013 : en:01:15:59.013
01:18:28.162 : en:01:18:28.162
01:20:49.636 : en:01:20:49.636






реклама партнёра


Вернуться к началу
 Профиль  
 
   Похожие торренты   Автор   Торрент   Размер 
В этой теме нет новых непрочитанных сообщений. Пингвины Мадагаскара / Penguins of Madagascar (Эрик Дарнелл, Саймон Дж. Смит) [мультфильм, комедия, приключения, семейный, 2014] BDRip 1080p, Dub+Sub [3D-Video | Лицензия]

Dracon

22 | 3

8.36 ГБ

В этой теме нет новых непрочитанных сообщений. Пингвины Мадагаскара 2D, 3D / Penguins of Madagascar 2D, 3D (Эрик Дарнелл, Саймон Дж. Смит) [мультфильм, комедия, приключения, семейный, 2014] BDRemux 1080p, Dub+Sub [3D-Video | Лицензия]

Dracon

10 | 3

33.3 ГБ

В этой теме нет новых непрочитанных сообщений. Пингвины Мадагаскара / Penguins of Madagascar (Эрик Дарнелл, Саймон Дж. Смит) [мультфильм, комедия, приключения, семейный, 2014] BDRip 1080p, Dub+Sub [Лицензия]

Dracon

280 | 13

9.99 ГБ

В этой теме нет новых непрочитанных сообщений. Пингвины Мадагаскара / Penguins of Madagascar (Эрик Дарнелл, Саймон Дж. Смит) [мультфильм, комедия, приключения, семейный, 2014] BDRip, Dub [лицензия]

Dracon

2362 | 75

1.36 ГБ

В этой теме нет новых непрочитанных сообщений. Пингвины Мадагаскара / Penguins of Madagascar (Эрик Дарнелл, Саймон Дж. Смит) [мультфильм, комедия, приключения, семейный, 2014] BDRemux 1080p, Dub+Sub [Лицензия]

Dracon

24 | 5

22.1 ГБ

В этой теме нет новых непрочитанных сообщений. Пингвины Мадагаскара / Penguins of Madagascar (Эрик Дарнелл, Саймон Дж. Смит) [мультфильм, комедия, приключения, семейный, 2014] BDRip 720p, Dub+Sub [Лицензия]

Dracon

240 | 13

5.2 ГБ

В этой теме нет новых непрочитанных сообщений. Пингвины Мадагаскара / Penguins of Madagascar (Эрик Дарнелл, Саймон Дж. Смит) [мультфильм, комедия, приключения, семейный, 2014] BDRip 1080p, Dub+Sub [iTunes]

Dracon

76 | 3

4.08 ГБ


Начать новую тему Ответить на тему  [ 1 сообщение ] 




Для Мосгорсуда, Роскомнадзора и рекламодателей:: mosgorsud-torrent[собачка]yandex.ru