Торрент файл
скачать торрент магнет ссылка Добавлен: 19 фев 2015, 11:24
Размер: 4.89 ГБ
Сидеров: 6
Личеров: 3
Автор

СообщениеДобавлено: 19 фев 2015, 11:24 

Не в сети
Зам. Админа
Аватара пользователя
Дата регистрации:
02 дек 2010, 12:39
Спасибо: 12635 / 214
Сообщения: 28010
Год выхода: 2014
Жанр: документальный, научно-познавательный, океанография
Режиссер: Джон Бруно, Рэй Квинт, Эндрю Уайт
В ролях: Джеймс Кэмерон, Френк Лолито, Лачлан Вудс, Пол Генри

О фильме:На Земле есть несколько мест, которых не коснулась история развития человечества. В полной темноте и безмолвии они хранаят величайшие тайны Земли. Недоступные, как далекие планеты, они полны научных открытий. Одно из таких мест — Марианская впадина. Джеймс Кэмерон — самый известный и успешный режиссер в мире, еще и страстный исследователь океанов, ведомый мечтой всей его жизни, быть первым человеком, ныряющим в одиночку на дно неприступной и самой глубокой из всех известных на Земле Марианской впадины. Вызов бездне — захватывающая история, разворачивающаяся перед нами в 3D, об экспедиции исторического масштаба, которую можно сравнить разве что с первыми человеческими шагами по луне. Вызов бездне загипнотизирует зрителя любого возраста красотой новых форм жизни, трепетом от настоящих открытий. А самое главное, что все это здесь, на их родной планете.

Качество: BDRip [720p]
Видео: MPEG4 Video (H264), 1280x720, 23.98fps, 6897 Кбит/сек
Аудио: AC3, 48000Hz, 2ch, 192 Кбит/сек
Аудио: AC3, 48000Hz, 6ch, 448 Кбит/сек
Продолжительность: 01:31:05
Перевод: Профессиональный (многоголосный) [Чистый звук]

Общее
Уникальный идентификатор                 : 185081835251052767015652440444362217088 (0x8B3D770189AC60E3AE1F6742578AD680)
Полное имя                               : D:prislanoeDeepsea.Challenge.2014.P.BDRip.720p.mkv
Формат                                   : Matroska
Версия формата                           : Version 2
Размер файла                             : 4,89 Гбайт
Продолжительность                        : 1 ч. 31 м.
Общий поток                              : 7690 Кбит/сек
Название фильма                          : Deepsea.Challenge.2014.P.BDRip.720p.ELEKTRI4KA.uniongang.tv[3imeMachi9e]
Дата кодирования                         : UTC 2015-02-18 18:36:55
Программа кодирования                    : mkvmerge v5.0.1 ('Es ist Sommer') built on Nov  6 2011 16:23:40
Библиотека кодирования                   : libebml v1.2.2 + libmatroska v1.3.0
DURATION                                 : 01:31:04.480000000
NUMBER_OF_FRAMES                         : 170765
NUMBER_OF_BYTES                          : 306010880
_STATISTICS_WRITING_APP                  : mkvmerge v7.2.0 ('On Every Street') 64bit built on Sep 13 2014 15:52:10
_STATISTICS_WRITING_DATE_UTC             : 2014-10-22 18:51:47
_STATISTICS_TAGS                         : BPS DURATION NUMBER_OF_FRAMES NUMBER_OF_BYTES

Видео
Идентификатор                            : 1
Формат                                   : AVC
Формат/Информация                        : Advanced Video Codec
Профиль формата                          : High@L4.1
Параметр CABAC формата                   : Да
Параметр ReFrames формата                : 9 кадров
Идентификатор кодека                     : V_MPEG4/ISO/AVC
Продолжительность                        : 1 ч. 31 м.
Битрейт                                  : 6897 Кбит/сек
Ширина                                   : 1280 пикселей
Высота                                   : 720 пикселей
Соотношение сторон                       : 16:9
Режим частоты кадров                     : Постоянный
Частота кадров                           : 23,976 кадра/сек
Цветовое пространство                    : YUV
Субдискретизация насыщенности            : 4:2:0
Битовая глубина                          : 8 бит
Тип развёртки                            : Прогрессивная
Бит/(Пиксели*Кадры)                      : 0.312
Размер потока                            : 4,39 Гбайт (90%)
Библиотека кодирования                   : x264 core 142 r2431kMod ac76440
Настройки программы                      : cabac=1 / ref=9 / deblock=1:-3:-3 / analyse=0x3:0x133 / me=umh / subme=10 / psy=1 / fade_compensate=0.00 / psy_rd=1.05:0.00 / mixed_ref=1 / me_range=24 / chroma_me=1 / trellis=2 / 8x8dct=1 / cqm=0 / deadzone=21,11 / fast_pskip=0 / chroma_qp_offset=-2 / threads=12 / lookahead_threads=2 / sliced_threads=0 / nr=0 / decimate=0 / interlaced=0 / bluray_compat=0 / constrained_intra=0 / fgo=0 / bframes=8 / b_pyramid=2 / b_adapt=2 / b_bias=0 / direct=3 / weightb=1 / open_gop=0 / weightp=2 / keyint=250 / keyint_min=23 / scenecut=40 / intra_refresh=0 / rc=crf / mbtree=0 / crf=18.0000 / qcomp=0.65 / qpmin=0 / qpmax=69 / qpstep=4 / ip_ratio=1.25 / pb_ratio=1.15 / aq=1:0.85
Язык                                     : English
Default                                  : Да
Forced                                   : Нет
DURATION                                 : 01:31:05.127000000
NUMBER_OF_FRAMES                         : 131032
NUMBER_OF_BYTES                          : 4814795416
_STATISTICS_WRITING_APP                  : mkvmerge v7.2.0 ('On Every Street') 64bit built on Sep 13 2014 15:52:10
_STATISTICS_WRITING_DATE_UTC             : 2014-10-22 18:51:47
_STATISTICS_TAGS                         : BPS DURATION NUMBER_OF_FRAMES NUMBER_OF_BYTES

Аудио #1
Идентификатор                            : 2
Формат                                   : AC-3
Формат/Информация                        : Audio Coding 3
Расширение режима                        : CM (complete main)
Параметр Endianness формата              : Big
Идентификатор кодека                     : A_AC3
Продолжительность                        : 1 ч. 31 м.
Вид битрейта                             : Постоянный
Битрейт                                  : 192 Кбит/сек
Каналы                                   : 2 канала
Расположение каналов                     : Front: L R
Частота                                  : 48,0 КГц
Битовая глубина                          : 16 бит
Метод сжатия                             : С потерями
Размер потока                            : 125 Мбайт (2%)
Заголовок                                : P - Deepsea.Challenge.2014.P.BDRip.720p.ELEKTRI4KA.uniongang.tv[3imeMachi9e]
Язык                                     : Russian
Default                                  : Да
Forced                                   : Нет

Аудио #2
Идентификатор                            : 3
Формат                                   : AC-3
Формат/Информация                        : Audio Coding 3
Расширение режима                        : CM (complete main)
Параметр Endianness формата              : Big
Идентификатор кодека                     : A_AC3
Продолжительность                        : 1 ч. 31 м.
Вид битрейта                             : Постоянный
Битрейт                                  : 448 Кбит/сек
Каналы                                   : 6 каналов
Расположение каналов                     : Front: L C R, Side: L R, LFE
Частота                                  : 48,0 КГц
Битовая глубина                          : 16 бит
Метод сжатия                             : С потерями
Размер потока                            : 292 Мбайт (6%)
Заголовок                                : Deepsea.Challenge.2014.P.BDRip.720p.ELEKTRI4KA.uniongang.tv[3imeMachi9e]
Язык                                     : English
Default                                  : Нет
Forced                                   : Нет

Меню
00:00:00.000                             : en:00:00:00.000
00:07:06.968                             : en:00:07:06.968
00:14:26.324                             : en:00:14:26.324
00:20:56.589                             : en:00:20:56.589
00:28:06.977                             : en:00:28:06.977
00:35:22.329                             : en:00:35:22.329
00:42:03.438                             : en:00:42:03.438
00:49:38.976                             : en:00:49:38.976
00:56:56.997                             : en:00:56:56.997
01:04:44.422                             : en:01:04:44.422
01:13:38.205                             : en:01:13:38.205
01:24:04.414                             : en:01:24:04.414








реклама партнёра


Вернуться к началу
 Профиль  
 
   Похожие торренты   Автор   Торрент   Размер 
В этой теме нет новых непрочитанных сообщений. Вызов бездне 3D  / Deepsea Challenge 3D (Джон Бруно, Рэй Квинт, Эндрю Уайт) [документальный, научно-познавательный, океанография, 2014] HDRip, mvo [Чистый звук]

Dracon

3 | 3

1.37 ГБ

В этой теме нет новых непрочитанных сообщений. Вызов бездне 3D  / Deepsea Challenge 3D (Джон Бруно, Рэй Квинт, Эндрю Уайт) [документальный, научно-познавательный, океанография, 2014] BDRip 1080p, mvo [HSBS | 3D-Video | Чистый звук]

Dracon

34 | 26

6.66 ГБ

В этой теме нет новых непрочитанных сообщений. Вызов бездне / Deepsea Challenge (Джон Бруно, Рэй Кен, Эндрю Уайт) [2014, документальный, HDRip] mvo

Nickolas3435

2155 | 120

1.37 ГБ

В этой теме нет новых непрочитанных сообщений. 45 лет / 45 Years (Эндрю Хэй) [Драма, мелодрама, 2015] BDRip 720p, mvo [Чистый звук]

Dracon

299 | 26

3.41 ГБ

В этой теме нет новых непрочитанных сообщений. Вызов / The Challenge [Боевик, приключения, драма, 1982] BDRip 1080p, Mvo+3Avo

salma3

51 | 38

12.16 ГБ

В этой теме нет новых непрочитанных сообщений. Гражданин четыре / Citizenfour (Лора Пойтрас) [Документальный, 2014] BDRip 1080p, dub [Чистый звук]

Марик

17 | 1

9.47 ГБ

В этой теме нет новых непрочитанных сообщений. Драконы Нью-Йорка / Revenge of the Green Dragons (Вэй Кеунг Лау, Эндрю Лу) [Боевик, драма, криминал, 2014] НDRip, dub [Чистый звук]

Dracon

5534 | 265

1.37 ГБ


Начать новую тему Ответить на тему  [ 1 сообщение ] 




Для Мосгорсуда, Роскомнадзора и рекламодателей:: mosgorsud-torrent[собачка]yandex.ru