Торрент файл
скачать торрент магнет ссылка Добавлен: 14 июл 2015, 21:33
Размер: 9.07 ГБ
Сидеров: 135
Личеров: 66
Автор

СообщениеДобавлено: 14 июл 2015, 21:33 

Не в сети
Зам. Админа
Аватара пользователя
Дата регистрации:
02 дек 2010, 12:39
Спасибо: 12642 / 214
Сообщения: 28010
Год выхода: 2014
Жанр: документальный, биография, история, спорт
Режиссер: Гейб Польски
В ролях: Скотти Боуман, Марк Дикинс, Вячеслав Фетисов, Анатолий Карпов, Алексей Касатонов, Кен Кертис, Феликс Ничипор, Владимир Познер, Татьяна Тарасова, Владислав Третьяк

О фильме:
Фильм о Советском Союзе и самой успешной в истории спорта команде — хоккеистах сборной СССР. Рассказ о превращении из национального героя в политического врага ведётся с точки зрения Вячеслава Фетисова. Это повествование о том, как в спорте отразились социальные и культурные изменения в стране, о взлёте и падении национальной сборной по хоккею.



Страна: США, Россия
Студия: Gabriel Polsky Productions
Продолжительность: 01:24:56
Перевод: Авторский (одноголосый, закадровый) Юрий Сербин

Формат: Matroska
Видео: 1920x1080 at 23.976, x264@L4.1, ~12 Mbps avg
Аудио#1: Russian: 48 kHz, DTS, 3/2 (L,C,R,l,r) + LFE ch, ~1509.00 kbps avg |Авторский, Ю.Сербин|
Аудио#2: English: 48 kHz, DTS, 3/2 (L,C,R,l,r) + LFE ch, ~1509.00 kbps avg
Субтитры: English

Сохранены оригинальные главы как на Blu-ray.
[*]Перевод и озвучивание осуществлены в рамках сервиса "Озвучивание" от HDClub. Спонсоры: tambov68, donttake, xerman13, Bodaibo, borisol55, elektrosvarschik.
General
Unique ID : 178012822233950828545407790857928131992 (0x85EC05C16A2CABB3BEA5C11774D94598)
Complete name : Red.Army.2014.1080p.BluRay.x264.Rus.Eng.Subs-IDE.mkv
Format : Matroska
Format version : Version 4 / Version 2
File size : 9.07 GiB
Duration : 1h 24mn
Overall bit rate : 15.3 Mbps
Movie name : released by aldershot
Encoded date : UTC 2015-07-14 13:43:00
Writing application : mkvmerge v6.9.1 ('Blue Panther') 64bit built on Apr 18 2014 18:23:38
Writing library : libebml v1.3.0 + libmatroska v1.4.1

Video
ID : 1
Format : AVC
Format/Info : Advanced Video Codec
Format profile : High@L4.1
Format settings, CABAC : Yes
Format settings, ReFrames : 4 frames
Codec ID : V_MPEG4/ISO/AVC
Duration : 1h 24mn
Bit rate : 12.0 Mbps
Width : 1 920 pixels
Height : 1 080 pixels
Display aspect ratio : 16:9
Frame rate mode : Constant
Frame rate : 23.976 fps
Color space : YUV
Chroma subsampling : 4:2:0
Bit depth : 8 bits
Scan type : Progressive
Bits/(Pixel*Frame) : 0.241
Stream size : 7.10 GiB (78%)
Title : IDE
Writing library : x264 core 144 r0+2574 9abcd72 t_mod_Custom [8-bit@all X86_64]
Encoding settings : cabac=1 / ref=4 / deblock=1:-3:-3 / analyse=0x3:0x133 / me=umh / subme=10 / psy=1 / fade_compensate=0.00 / psy_rd=0.90:0.00 / mixed_ref=1 / me_range=48 / chroma_me=1 / trellis=2 / 8x8dct=1 / cqm=0 / deadzone=21,11 / fast_pskip=1 / chroma_qp_offset=-2 / threads=8 / lookahead_threads=1 / sliced_threads=0 / nr=0 / decimate=1 / interlaced=0 / bluray_compat=0 / constrained_intra=0 / fgo=0 / bframes=9 / b_pyramid=2 / b_adapt=2 / b_bias=0 / direct=3 / weightb=1 / open_gop=0 / weightp=2 / keyint=250 / keyint_min=23 / scenecut=40 / intra_refresh=0 / rc_lookahead=150 / rc=crf / mbtree=0 / crf=17.0000 / qcomp=0.65 / qpmin=0:0:0 / qpmax=69:69:69 / qpstep=4 / vbv_maxrate=50000 / vbv_bufsize=62500 / crf_max=0.0 / nal_hrd=none / filler=0 / ip_ratio=1.30 / pb_ratio=1.30 / aq=4:0.75 / aq-sensitivity=10.00 / aq-factor=1.00:1.00:1.00 / aq2=0 / aq3=0
Language : English
Default : Yes
Forced : No

Audio #1
ID : 2
Format : DTS
Format/Info : Digital Theater Systems
Mode : 16
Format settings, Endianness : Big
Codec ID : A_DTS
Duration : 1h 24mn
Bit rate mode : Constant
Bit rate : 1 509 Kbps
Channel(s) : 6 channels
Channel positions : Front: L C R, Side: L R, LFE
Sampling rate : 48.0 KHz
Bit depth : 24 bits
Compression mode : Lossy
Stream size : 917 MiB (10%)
Title : DTS 5.1 @ 1536 Kbps, Одноголосый закадровый, Юрий Сербин
Language : Russian
Default : Yes
Forced : No

Audio #2
ID : 3
Format : DTS
Format/Info : Digital Theater Systems
Mode : 16
Format settings, Endianness : Big
Codec ID : A_DTS
Duration : 1h 24mn
Bit rate mode : Constant
Bit rate : 1 509 Kbps
Channel(s) : 6 channels
Channel positions : Front: L C R, Side: L R, LFE
Sampling rate : 48.0 KHz
Bit depth : 24 bits
Compression mode : Lossy
Stream size : 917 MiB (10%)
Title : DTS 5.1@ 1536 Kbps, Original
Language : English
Default : No
Forced : No

Text #1
ID : 4
Format : UTF-8
Codec ID : S_TEXT/UTF8
Codec ID/Info : UTF-8 Plain Text
Title : forced
Language : English
Default : Yes
Forced : Yes

Text #2
ID : 5
Format : UTF-8
Codec ID : S_TEXT/UTF8
Codec ID/Info : UTF-8 Plain Text
Title : full
Language : English
Default : No
Forced : No

Menu
00:00:00.000 : en:00:00:00.000
00:01:48.358 : en:00:01:48.358
00:06:22.757 : en:00:06:22.757
00:12:06.893 : en:00:12:06.893
00:16:54.597 : en:00:16:54.597
00:20:16.298 : en:00:20:16.298
00:24:01.815 : en:00:24:01.815
00:27:45.789 : en:00:27:45.789
00:34:18.223 : en:00:34:18.223
00:39:38.084 : en:00:39:38.084
00:48:22.191 : en:00:48:22.191
00:53:45.848 : en:00:53:45.848
00:59:52.297 : en:00:59:52.297
01:05:39.102 : en:01:05:39.102
01:09:36.631 : en:01:09:36.631
01:18:34.585 : en:01:18:34.585




реклама партнёра


Вернуться к началу
 Профиль  
 
   Похожие торренты   Автор   Торрент   Размер 
В этой теме нет новых непрочитанных сообщений. Красная армия / Red Army (Гейб Польски) [Документальный, биография, история, 2014] BDRip-AVC [Сербин]

Dracon

1014 | 232

1.2 ГБ

В этой теме нет новых непрочитанных сообщений. Красная армия / Red Army (Гейб Польски) [Документальный, биография, история, 2014] Blu-ray Remux 1080p [Сербин]

Dracon

64 | 63

20.53 ГБ

В этой теме нет новых непрочитанных сообщений. Красная армия / Red Army (Гейб Польски) [Документальный, биография, история, 2014] BDRip 720p [Сербин]

Dracon

0 | 1

5.55 ГБ

В этой теме нет новых непрочитанных сообщений. Красная армия / Red Army (Гейб Польски) [Документальный, биография, история, 2014] HDRip [Сербин]

Dracon

2029 | 132

1.45 ГБ

В этой теме нет новых непрочитанных сообщений. Папашина армия / Dad's Army [комедия, 2016] BDRip 1080p, Dub [Лицензия]

salma3

0 | 0

9.81 ГБ

В этой теме нет новых непрочитанных сообщений. Папашина армия / Dad's Army [комедия, военный, 2015] BDRip-AVC, Dub [Лицензия]

salma3

150 | 17

1.46 ГБ

В этой теме нет новых непрочитанных сообщений. Папашина армия / Dad's Army [Комедия, 2016] BDRip 720p, Dub [Лицензия]

salma3

0 | 0

4.09 ГБ


Начать новую тему Ответить на тему  [ 1 сообщение ] 




Для Мосгорсуда, Роскомнадзора и рекламодателей:: mosgorsud-torrent[собачка]yandex.ru
cron