Торрент файл
скачать торрент магнет ссылка Добавлен: 14 июл 2015, 20:52
Размер: 5.55 ГБ
Сидеров: 0
Личеров: 1
Автор

СообщениеДобавлено: 14 июл 2015, 20:52 

Не в сети
Зам. Админа
Аватара пользователя
Дата регистрации:
02 дек 2010, 12:39
Спасибо: 12648 / 214
Сообщения: 28010
Год выхода: 2014
Жанр: Документальный, биография, история, спорт
Режиссер: Гейб Польски
В ролях: Вячеслав Фетисов, Владислав Третьяк, Алексей Касатонов, Скотти Боуман, Марк Дикинс, Анатолий Карпов, Кен Кертис, Феликс Ничипор, Владимир Познер, Татьяна Тарасова

О фильме:
Фильм о Советском Союзе и самой успешной в истории спорта команде – хоккеистах сборной СССР. Рассказ о превращении из национального героя в политического врага ведётся с точки зрения Вячеслава Фетисова. Это повествование о том, как в спорте отразились социальные и культурные изменения в стране, о взлёте и падении национальной сборной по хоккею.

Кинопоиск    IMDB

Качество: BDRip [720p]
Видео: AVC, 1280x720, 23,976 fps, 5437 kbit/s
Аудио #1: DTS, 48 kHz, 6 ch, 1509 kbit/s [Русский]
Аудио #2: AC3, 48 kHz, 6 ch, 448 kbit/s [Русский]
Аудио #3: DTS, 48 kHz, 6 ch, 1509 kbit/s [Английский]
Аудио #4: AC3, 48 kHz, 6 ch, 448 kbit/s [Английский]
Субтитры: Английские
Продолжительность: 01:24:56
Перевод: Авторский [Сербин]

General
Unique ID                      : 185232500821023606637787425366801533010 (0x8B5A7B64626782368AFE4471FCEA4852)
Complete name                  : DownloadsКрасная армия (2014) BDRip-720p.mkv
Format                         : Matroska
Format version                 : Version 2
File size                      : 5.55 GiB
Duration                       : 1h 24mn
Overall bit rate               : 9 356 Kbps
Movie name                     : Красная армия (2014) BDRip-720p HDLine
Encoded date                   : UTC 2015-07-14 14:24:36
Writing application            : mkvmerge v8.1.0 ('Psychedelic Postcard') 64bit
Writing library                : libebml v1.3.1 + libmatroska v1.4.2
Attachements                   : Cover.jpg
DURATION                       : 01:20:05.846000000
NUMBER_OF_FRAMES               : 1173
NUMBER_OF_BYTES                : 48077
_STATISTICS_WRITING_APP        : mkvmerge v8.1.0 ('Psychedelic Postcard') 64bit
_STATISTICS_WRITING_DATE_UTC   : 2015-07-14 14:24:36
_STATISTICS_TAGS               : BPS DURATION NUMBER_OF_FRAMES NUMBER_OF_BYTES

Video
ID                             : 1
Format                         : AVC
Format/Info                    : Advanced Video Codec
Format profile                 : High@L3.1
Format settings, CABAC         : Yes
Format settings, ReFrames      : 4 frames
Codec ID                       : V_MPEG4/ISO/AVC
Duration                       : 1h 24mn
Bit rate                       : 5 437 Kbps
Width                          : 1 280 pixels
Height                         : 720 pixels
Display aspect ratio           : 16:9
Frame rate mode                : Constant
Frame rate                     : 23.976 fps
Color space                    : YUV
Chroma subsampling             : 4:2:0
Bit depth                      : 8 bits
Scan type                      : Progressive
Bits/(Pixel*Frame)             : 0.246
Stream size                    : 3.12 GiB (56%)
Title                          : Red Army (2014)
Writing library                : x264 core 146 r2538kMod 121396c
Encoding settings              : cabac=1 / ref=5 / deblock=1:0:0 / analyse=0x3:0x133 / me=umh / subme=10 / psy=1 / fade_compensate=0.00 / psy_rd=1.00:0.00 / mixed_ref=1 / me_range=24 / chroma_me=1 / trellis=2 / 8x8dct=1 / cqm=0 / deadzone=21,11 / fast_pskip=1 / chroma_qp_offset=-2 / threads=10 / lookahead_threads=1 / sliced_threads=0 / nr=0 / decimate=1 / interlaced=0 / bluray_compat=1 / constrained_intra=0 / fgo=0 / bframes=3 / b_pyramid=1 / b_adapt=2 / b_bias=0 / direct=3 / weightb=1 / open_gop=0 / weightp=1 / keyint=240 / keyint_min=1 / scenecut=40 / intra_refresh=0 / rc_lookahead=60 / rc=2pass / mbtree=1 / bitrate=5437 / ratetol=1.0 / qcomp=0.60 / qpmin=0 / qpmax=69 / qpstep=4 / cplxblur=20.0 / qblur=0.5 / ip_ratio=1.40 / aq=1:1.00
Language                       : English
Default                        : Yes
Forced                         : No
DURATION                       : 01:24:56.091000000
NUMBER_OF_FRAMES               : 122184
NUMBER_OF_BYTES                : 3464267708
_STATISTICS_WRITING_APP        : mkvmerge v8.1.0 ('Psychedelic Postcard') 64bit
_STATISTICS_WRITING_DATE_UTC   : 2015-07-14 14:24:36
_STATISTICS_TAGS               : BPS DURATION NUMBER_OF_FRAMES NUMBER_OF_BYTES

Audio #1
ID                             : 2
Format                         : DTS
Format/Info                    : Digital Theater Systems
Mode                           : 16
Format settings, Endianness    : Big
Codec ID                       : A_DTS
Duration                       : 1h 24mn
Bit rate mode                  : Constant
Bit rate                       : 1 509 Kbps
Channel(s)                     : 6 channels
Channel positions              : Front: L C R, Side: L R, LFE
Sampling rate                  : 48.0 KHz
Bit depth                      : 24 bits
Compression mode               : Lossy
Stream size                    : 917 MiB (16%)
Title                          : AVO Serbin - DTS 5.1 48KHz@1509kbps (24-bit)
Language                       : Russian
Default                        : Yes
Forced                         : No

Audio #2
ID                             : 3
Format                         : AC-3
Format/Info                    : Audio Coding 3
Mode extension                 : CM (complete main)
Format settings, Endianness    : Big
Codec ID                       : A_AC3
Duration                       : 1h 24mn
Bit rate mode                  : Constant
Bit rate                       : 448 Kbps
Channel(s)                     : 6 channels
Channel positions              : Front: L C R, Side: L R, LFE
Sampling rate                  : 48.0 KHz
Bit depth                      : 16 bits
Compression mode               : Lossy
Stream size                    : 272 MiB (5%)
Title                          : AVO Serbin - AC3 5.1 48KHz@448kbps
Language                       : Russian
Default                        : No
Forced                         : No

Audio #3
ID                             : 4
Format                         : DTS
Format/Info                    : Digital Theater Systems
Mode                           : 16
Format settings, Endianness    : Big
Codec ID                       : A_DTS
Duration                       : 1h 24mn
Bit rate mode                  : Constant
Bit rate                       : 1 509 Kbps
Channel(s)                     : 6 channels
Channel positions              : Front: L C R, Side: L R, LFE
Sampling rate                  : 48.0 KHz
Bit depth                      : 24 bits
Compression mode               : Lossy
Stream size                    : 917 MiB (16%)
Title                          : Original - DTS 5.1 48KHz@1509kbps (24-bit)
Language                       : English
Default                        : No
Forced                         : No

Audio #4
ID                             : 5
Format                         : AC-3
Format/Info                    : Audio Coding 3
Mode extension                 : CM (complete main)
Format settings, Endianness    : Big
Codec ID                       : A_AC3
Duration                       : 1h 24mn
Bit rate mode                  : Constant
Bit rate                       : 448 Kbps
Channel(s)                     : 6 channels
Channel positions              : Front: L C R, Side: L R, LFE
Sampling rate                  : 48.0 KHz
Bit depth                      : 16 bits
Compression mode               : Lossy
Stream size                    : 272 MiB (5%)
Title                          : Original - AC3 5.1 48KHz@448kbps
Language                       : English
Default                        : No
Forced                         : No

Text
ID                             : 6
Format                         : UTF-8
Codec ID                       : S_TEXT/UTF8
Codec ID/Info                  : UTF-8 Plain Text
Language                       : English
Default                        : No
Forced                         : No

Menu
00:00:00.000                   : en:00:00:00
00:01:48.357                   : en:00:01:48
00:06:22.756                   : en:00:06:22
00:12:06.893                   : en:00:12:06
00:16:54.597                   : en:00:16:54
00:20:16.298                   : en:00:20:16
00:24:01.815                   : en:00:24:01
00:27:45.789                   : en:00:27:45
00:34:18.223                   : en:00:34:18
00:39:38.083                   : en:00:39:38
00:48:22.190                   : en:00:48:22
00:53:45.848                   : en:00:53:45
00:59:52.296                   : en:00:59:52
01:05:39.102                   : en:01:05:39
01:09:36.631                   : en:01:09:36
01:18:34.585                   : en:01:18:34














Вернуться к началу
 Профиль  
 
   Похожие торренты   Автор   Торрент   Размер 
В этой теме нет новых непрочитанных сообщений. Красная армия / Red Army (Гейб Польски) [Документальный, биография, история, 2014] BDRip-AVC [Сербин]

Dracon

1014 | 232

1.2 ГБ

В этой теме нет новых непрочитанных сообщений. Красная армия / Red Army (Гейб Польски) [Документальный, биография, история, 2014] BDRip 1080p [Сербин]

Dracon

135 | 66

9.07 ГБ

В этой теме нет новых непрочитанных сообщений. Красная армия / Red Army (Гейб Польски) [Документальный, биография, история, 2014] HDRip [Сербин]

Dracon

2029 | 132

1.45 ГБ

В этой теме нет новых непрочитанных сообщений. Красная армия / Red Army (Гейб Польски) [Документальный, биография, история, 2014] Blu-ray Remux 1080p [Сербин]

Dracon

64 | 63

20.53 ГБ

В этой теме нет новых непрочитанных сообщений. Глиняная (Призрачная) армия Китая / National Geographic. China's Ghost Army (Стивен Тэллей) [2010, документальный, научно-познавательный, история, HDTVRip] DUB

salma3

0 | 0

677.33 МБ

В этой теме нет новых непрочитанных сообщений. Папашина армия / Dad's Army [Комедия, 2016] BDRip 720p, Dub [Лицензия]

salma3

0 | 0

4.09 ГБ

В этой теме нет новых непрочитанных сообщений. Зловещие мертвецы 3: Армия тьмы / Army of Darkness [ужасы, фэнтези, боевик, комедия, 1992] BDRip 720p, Dvo

salma3

18 | 7

6.64 ГБ


Начать новую тему Ответить на тему  [ 1 сообщение ] 




Для Мосгорсуда, Роскомнадзора и рекламодателей:: mosgorsud-torrent[собачка]yandex.ru
cron