Торрент файл
скачать торрент магнет ссылка Добавлен: 30 сен 2019, 21:41
Размер: 10.31 ГБ
Сидеров: 185
Личеров: 64
Автор

СообщениеДобавлено: 30 сен 2019, 21:41 

Не в сети
Супермодератор
Аватара пользователя
Дата регистрации:
15 фев 2012, 16:44
Возраст: 30
Спасибо: 8185 / 2148
Сообщения: 95748
Год выпуска: 2019
Жанр: Фантастика, боевик, приключения
Режиссер: Джон Уоттс

В ролях: Том Холланд (II), Зендая Колеман, Энгаури Райс, Джон Фавро, Джейк Джилленхол, Сэмюэл Л. Джексон, Коби Смолдерс, Мариса Томей, Мартин Старр, Нуман Аджар, Джейкоб Баталон, Тони Револори

О фильме:
Питер Паркер вместе с друзьями отправляется на летние каникулы в Европу. Однако отдохнуть приятелям вряд ли удастся - Питеру придется согласиться помочь Нику Фьюри раскрыть тайну существ, вызывающих стихийные бедствия и разрушения по всему континенту.



Страна: США
Продолжительность: 02:09:23
Перевод: Дублированный | iTunes

Файл
Качество: BDRip (by Ash61)
Контейнер: MKV
Формат 3D: Half OverUnder / Вертикальная анаморфная стереопара
Порядок ракурсов: левый ракурс первый



Видео: AVC / 1920х1080p / 23,976 fps / 10.0 Mbps

Аудио:
#1 - Русский / AC3 / 48 KHz / 5.1 ch / 384 Kbps (Дубляж - iTunes)
#2 - Украинский / AC3 / 48 KHz / 5.1 ch / 384 Kbps (Дубляж - iTunes) (спасибо Hurtom!)
#3 - Английский / AC3 / 48 KHz / 5.1 ch / 640 Kbps (Original)

Субтитры (SRT):
Вшитые (softsub):
#1 - Русские Форсированные [вер. Ash61] (включены по умолчанию)
#2 - Русские Полные
#3 - Украинские Форсированные [вер. Ash61]
#4 - Украинские Полные
#5 - English Full
#6 - English SDH

Внешние (UTF-8):
#1 - Русские Форсированные [вер. Ash61] (включены по умолчанию)
#2 - Русские Полные
#3 - Украинские Форсированные [вер. Ash61]

General
Unique ID : 246968000547652243377341874840994908970 (0xB9CC4E878FF374FAB61A9D48DF490B2A)
Complete name : D:Spider-Man.FarFromHome(2019)3D-hOU(Ash61)iTunesSpider-Man.FarFromHome(2019)3D-hOU(Ash61)iTunes.mkv
Format : Matroska
Format version : Version 2
File size : 10.3 GiB
Duration : 2h 9mn
Overall bit rate : 11.4 Mbps
Movie name : Человек-паук: Вдали от дома / Spider-Man: Far from Home (2019) in 3D
Encoded date : UTC 2019-09-30 11:59:18
Writing application : mkvmerge v5.8.0 ('No Sleep / Pillow') built on Sep 2 2012 15:37:04
Writing library : libebml v1.2.3 + libmatroska v1.3.0

Video
ID : 1
Format : AVC
Format/Info : Advanced Video Codec
Format profile : High@L4.1
Format settings, CABAC : Yes
Format settings, ReFrames : 4 frames
Codec ID : V_MPEG4/ISO/AVC
Duration : 2h 9mn
Bit rate : 10 000 Kbps
Width : 1 920 pixels
Height : 1 080 pixels
Display aspect ratio : 16:9
Frame rate mode : Constant
Frame rate : 23.976 (24000/1001) fps
Color space : YUV
Chroma subsampling : 4:2:0
Bit depth : 8 bits
Scan type : Progressive
Bits/(Pixel*Frame) : 0.201
Stream size : 8.83 GiB (86%)
Title : BDRip by Ash61
Writing library : x264 core 146 r2538 121396c
Encoding settings : cabac=1 / ref=4 / deblock=1:-3:-3 / analyse=0x3:0x113 / me=umh / subme=10 / psy=1 / psy_rd=1.00:0.00 / mixed_ref=1 / me_range=32 / chroma_me=1 / trellis=2 / 8x8dct=1 / cqm=0 / deadzone=21,11 / fast_pskip=0 / chroma_qp_offset=-2 / threads=12 / lookahead_threads=3 / sliced_threads=0 / nr=0 / decimate=0 / interlaced=0 / bluray_compat=0 / constrained_intra=0 / bframes=10 / b_pyramid=2 / b_adapt=2 / b_bias=0 / direct=3 / weightb=1 / open_gop=0 / weightp=2 / keyint=250 / keyint_min=23 / scenecut=40 / intra_refresh=0 / rc_lookahead=60 / rc=2pass / mbtree=0 / bitrate=10000 / ratetol=1.0 / qcomp=0.70 / qpmin=0 / qpmax=69 / qpstep=4 / cplxblur=20.0 / qblur=0.5 / vbv_maxrate=40000 / vbv_bufsize=30000 / nal_hrd=none / filler=0 / frame-packing=4 / ip_ratio=1.40 / pb_ratio=1.30 / aq=1:0.70
Language : English
Default : Yes
Forced : No

Audio #1
ID : 2
Format : AC-3
Format/Info : Audio Coding 3
Mode extension : CM (complete main)
Format settings, Endianness : Big
Codec ID : A_AC3
Duration : 2h 9mn
Bit rate mode : Constant
Bit rate : 384 Kbps
Channel(s) : 6 channels
Channel positions : Front: L C R, Side: L R, LFE
Sampling rate : 48.0 KHz
Frame rate : 31.250 fps (1536 spf)
Compression mode : Lossy
Stream size : 355 MiB (3%)
Title : Дубляж (iTunes)
Language : Russian
Default : Yes
Forced : No

Audio #2
ID : 3
Format : AC-3
Format/Info : Audio Coding 3
Mode extension : CM (complete main)
Format settings, Endianness : Big
Codec ID : A_AC3
Duration : 2h 9mn
Bit rate mode : Constant
Bit rate : 384 Kbps
Channel(s) : 6 channels
Channel positions : Front: L C R, Side: L R, LFE
Sampling rate : 48.0 KHz
Frame rate : 31.250 fps (1536 spf)
Compression mode : Lossy
Stream size : 355 MiB (3%)
Title : Дубляж (iTunes)
Language : Ukrainian
Default : No
Forced : No

Audio #3
ID : 4
Format : AC-3
Format/Info : Audio Coding 3
Mode extension : CM (complete main)
Format settings, Endianness : Big
Codec ID : A_AC3
Duration : 2h 9mn
Bit rate mode : Constant
Bit rate : 640 Kbps
Channel(s) : 6 channels
Channel positions : Front: L C R, Side: L R, LFE
Sampling rate : 48.0 KHz
Frame rate : 31.250 fps (1536 spf)
Compression mode : Lossy
Stream size : 592 MiB (6%)
Title : Original
Language : English
Default : No
Forced : No

Text #1
ID : 5
Format : UTF-8
Codec ID : S_TEXT/UTF8
Codec ID/Info : UTF-8 Plain Text
Title : Форсированные (вер. Ash61)
Language : Russian
Default : Yes
Forced : No

Text #2
ID : 6
Format : UTF-8
Codec ID : S_TEXT/UTF8
Codec ID/Info : UTF-8 Plain Text
Title : Полные
Language : Russian
Default : No
Forced : No

Text #3
ID : 7
Format : UTF-8
Codec ID : S_TEXT/UTF8
Codec ID/Info : UTF-8 Plain Text
Title : Форсированные (вер. Ash61)
Language : Ukrainian
Default : No
Forced : No

Text #4
ID : 8
Format : UTF-8
Codec ID : S_TEXT/UTF8
Codec ID/Info : UTF-8 Plain Text
Title : Полные
Language : Ukrainian
Default : No
Forced : No

Text #5
ID : 9
Format : UTF-8
Codec ID : S_TEXT/UTF8
Codec ID/Info : UTF-8 Plain Text
Title : Full
Language : English
Default : No
Forced : No

Text #6
ID : 10
Format : UTF-8
Codec ID : S_TEXT/UTF8
Codec ID/Info : UTF-8 Plain Text
Title : SDH
Language : English
Default : No
Forced : No

Menu
00:00:00.000 : :1
00:09:35.032 : :2
00:16:06.715 : :3
00:25:18.474 : :4
00:35:26.498 : :5
00:41:57.014 : :6
00:49:50.027 : :7
00:57:09.509 : :8
01:04:50.635 : :9
01:15:57.219 : :10
01:22:49.088 : :11
01:29:25.193 : :12
01:36:43.255 : :13
01:44:47.363 : :14
01:52:17.396 : :15
01:57:45.432 : :16





















_________________
Проголосуй за трекер Открытый торрент трекер - RUS-MEDIA.ORG

Проголосуй Открытый торрент трекер - RUS-MEDIA.ORG


Скачать книги и аудио книги через торрент


Вернуться к началу
 Профиль Отправить личное сообщение  
 
   Похожие торренты   Автор   Торрент   Размер 
В этой теме нет новых непрочитанных сообщений. Человек-паук: Вдали от дома / Spider-Man: Far from Home [Фантастика, боевик, приключения, 2019] BDRemux 1080p, Dub [iTunes] [3D-Video]

salma3

1 | 4

35.87 ГБ

В этой теме нет новых непрочитанных сообщений. Человек-паук: Вдали от дома / Spider-Man: Far from Home [Фантастика, боевик, приключения, 2019] BDRip 1080p, Dub [iTunes]

salma3

0 | 29

8.02 ГБ

В этой теме нет новых непрочитанных сообщений. Человек-паук: Вдали от дома / Spider-Man: Far from Home [Фантастика, боевик, приключения, 2019] BDRip 1080p, Dub [iTunes]

salma3

0 | 3

7.52 ГБ

В этой теме нет новых непрочитанных сообщений. Человек-паук: Вдали от дома / Spider-Man: Far from Home [Фантастика, боевик, приключения, 2019] BDRip-HEVC 1080p, Dub [iTunes]

salma3

0 | 0

5.68 ГБ

В этой теме нет новых непрочитанных сообщений. Человек-паук: Вдали от дома / Spider-Man: Far from Home [Фантастика, боевик, приключения, 2019] BDRip-AVC, Dub [iTunes]

salma3

0 | 0

2.58 ГБ

В этой теме нет новых непрочитанных сообщений. Человек-паук: Вдали от дома / Spider-Man: Far from Home [Фантастика, боевик, приключения, 2019] BDRip 720p, Dub [iTunes]

salma3

10 | 23

4.41 ГБ

В этой теме нет новых непрочитанных сообщений. Человек-паук: Вдали от дома / Spider-Man: Far from Home [фантастика, боевик, приключения, 2019] HDRip, Dub [iTunes]

K15

0 | 0

795.05 МБ


СообщениеДобавлено: 12 янв 2020, 14:10 

Не в сети
Аватара пользователя
Дата регистрации:
05 сен 2019, 19:34
Возраст: 44
Спасибо: 0 / 0
Сообщения: 4
Откуда: Afghanistan
This valuable message


Скачать книги и аудио книги через торрент


Вернуться к началу
 Профиль Отправить личное сообщение  
 
Начать новую тему Ответить на тему  [ Сообщений: 2 ] 




Для Мосгорсуда, Роскомнадзора и рекламодателей:: mosgorsud-torrent[собачка]yandex.ru
cron