Торрент файл
скачать торрент магнет ссылка Добавлен: 29 июн 2019, 20:47
Размер: 19.44 ГБ
Сидеров: 0
Личеров: 0
Автор

СообщениеДобавлено: 29 июн 2019, 20:47 

Не в сети
Супермодератор
Аватара пользователя
Дата регистрации:
15 фев 2012, 16:44
Возраст: 30
Спасибо: 8131 / 2147
Сообщения: 94828
Год выпуска: 2015
Страна: Китай (Wanda Pictures, Huayi Brothers, Enlight Pictures, Meridian Entertainment, Mongke Tengri Pictures, CKF Pictures)
Жанр: приключения, фэнтези, боевик
Продолжительность: 02:05:22

Перевод: Любительский двухголосый закадровый - Ворон и Sandairina

Режиссер: Уэршань / Wuershan



В ролях:



Чэнь Кунь (Ху Баи), Шу Ци (Ширли Ян), Хуан Бо (Ван Кайсюань), Анджела Бейби (Ding Sitian), Кит Коллеа (хозяин бара), Джонатан Кос-Рид (Марк), Лю Сяоцин (мадам Инь), Черри Нган (Йоко), Ся Юй (Da Jin Ya), Кевин Ли (Body Guard)



Описание 1: В 1988 году трое модзиней (расхитителей гробниц) — Ху Баи, Ван Кайсюань и Ширли Ян — бросают заниматься грабежами захоронений и переезжают в Нью-Йорк. Хотя Баи и Ширли связывают романтические отношения, Ван чувствует, что великие модзини заслуживают лучшего финансового положения и, приняв предложение корпорации найти захоронение одной богини, возвращается на родину. Пытаясь спасти друга от неприятностей, Баи и Ширли отправляются следом за ним.

Описание 2: Ху Баи, Ширли Ян и Ван Кайсюань – троица опытных охотников за сокровищами, вот только сейчас они отошли от дел и пытаются найти себя на чужбине – в Штатах. Тем временем им поступает новый заказ, связанный с трагедией двадцатилетней давности – тогда Баи и Кайсюань оказались в составе группы молодых патриотов, столкнувшихся в древней гробнице с армией оживших зомби, и потеряли девушку, которая нравилась им обоим. Ху Баи не спешит возвращаться к прошлому, но Кайсюань твердо решил довести дело до конца во имя погибшей.



Доп. инфо: IMAX версия - часть сцен в аспекте 1.85 : 1, часть - 2.35 : 1
Перевод - Ворон; редакция и правки с Китайского - ChenXi; консультация по китайскому - SHAIM



Премьера (мир): 17 декабря 2015
Бюджет: $37 000 000
Кассовые сборы: $259 368 448





Качество: BDRip (by Ash61) (исх - BD 3D Ger)
Контейнер: MKV
Формат 3D: Half OverUnder / Вертикальная анаморфная стереопара
Порядок ракурсов: левый ракурс первый



Видео: AVC / 1920х1080p / 23,976 fps / 21.0 Mbps

Аудио:
#1 - Русский / AC3 / 48 KHz / 5.1 ch / 640 Kbps (DVO - Ворон и Sandairina)
#2 - Китайский / AC3 / 48 KHz / 5.1 ch / 640 Kbps (Original - BD 3D)

Субтитры (SRT):
Вшитые (softsub):
#1 - Русские Форсированные (включены по умолчанию)
#2 - Русские Полные
#3 - English Full

Внешние (UTF-8):
#1 - Русские Форсированные (включены по умолчанию)
#2 - Русские Полные

General
Unique ID : 225710427948480691498768851423018468900 (0xA9CE3F4825EE46A9AFCC387CFC79C624)
Complete name : J:Mojin-TheLostLegend(2015)3D-halfOU(Ash61)DVOMojin-TheLostLegend(2015)3D-halfOU(Ash61)DVO.mkv
Format : Matroska
Format version : Version 2
File size : 19.4 GiB
Duration : 2h 5mn
Overall bit rate : 22.2 Mbps
Movie name : Моджин / Упырь / Моцзинь. Потерянная легенда / Xun Long Jue / Mojin - The Lost Legend (2015) in 3D
Encoded date : UTC 2019-03-10 13:22:03
Writing application : mkvmerge v5.8.0 ('No Sleep / Pillow') built on Sep 2 2012 15:37:04
Writing library : libebml v1.2.3 + libmatroska v1.3.0

Video
ID : 1
Format : AVC
Format/Info : Advanced Video Codec
Format profile : High@L4.1
Format settings, CABAC : Yes
Format settings, ReFrames : 4 frames
Codec ID : V_MPEG4/ISO/AVC
Duration : 2h 5mn
Bit rate : 21.0 Mbps
Width : 1 920 pixels
Height : 1 080 pixels
Display aspect ratio : 16:9
Frame rate mode : Constant
Frame rate : 23.976 (24000/1001) fps
Color space : YUV
Chroma subsampling : 4:2:0
Bit depth : 8 bits
Scan type : Progressive
Bits/(Pixel*Frame) : 0.422
Stream size : 17.9 GiB (92%)
Title : BDRip by Ash61
Writing library : x264 core 146 r2538 121396c
Encoding settings : cabac=1 / ref=4 / deblock=1:-3:-3 / analyse=0x3:0x113 / me=umh / subme=10 / psy=1 / psy_rd=1.00:0.00 / mixed_ref=1 / me_range=32 / chroma_me=1 / trellis=2 / 8x8dct=1 / cqm=0 / deadzone=21,11 / fast_pskip=0 / chroma_qp_offset=-2 / threads=12 / lookahead_threads=3 / sliced_threads=0 / nr=0 / decimate=0 / interlaced=0 / bluray_compat=0 / constrained_intra=0 / bframes=12 / b_pyramid=2 / b_adapt=2 / b_bias=0 / direct=3 / weightb=1 / open_gop=0 / weightp=2 / keyint=250 / keyint_min=23 / scenecut=40 / intra_refresh=0 / rc_lookahead=60 / rc=2pass / mbtree=0 / bitrate=21000 / ratetol=1.0 / qcomp=0.70 / qpmin=0 / qpmax=69 / qpstep=4 / cplxblur=20.0 / qblur=0.5 / vbv_maxrate=40000 / vbv_bufsize=30000 / nal_hrd=none / filler=0 / frame-packing=4 / ip_ratio=1.40 / pb_ratio=1.30 / aq=1:0.70
Language : Chinese
Default : Yes
Forced : No

Audio #1
ID : 2
Format : AC-3
Format/Info : Audio Coding 3
Mode extension : CM (complete main)
Format settings, Endianness : Big
Codec ID : A_AC3
Duration : 2h 5mn
Bit rate mode : Constant
Bit rate : 640 Kbps
Channel(s) : 6 channels
Channel positions : Front: L C R, Side: L R, LFE
Sampling rate : 48.0 KHz
Frame rate : 31.250 fps (1536 spf)
Compression mode : Lossy
Stream size : 574 MiB (3%)
Title : DVO - Ворон и Sandairina (Перевод - Ворон)
Language : Russian
Default : Yes
Forced : No

Audio #2
ID : 3
Format : AC-3
Format/Info : Audio Coding 3
Mode extension : CM (complete main)
Format settings, Endianness : Big
Codec ID : A_AC3
Duration : 2h 5mn
Bit rate mode : Constant
Bit rate : 640 Kbps
Channel(s) : 6 channels
Channel positions : Front: L C R, Side: L R, LFE
Sampling rate : 48.0 KHz
Frame rate : 31.250 fps (1536 spf)
Compression mode : Lossy
Stream size : 574 MiB (3%)
Title : Original
Language : Chinese
Default : No
Forced : No

Text #1
ID : 4
Format : UTF-8
Codec ID : S_TEXT/UTF8
Codec ID/Info : UTF-8 Plain Text
Title : Форсированные
Language : Russian
Default : Yes
Forced : No

Text #2
ID : 5
Format : UTF-8
Codec ID : S_TEXT/UTF8
Codec ID/Info : UTF-8 Plain Text
Title : Полные
Language : Russian
Default : No
Forced : No

Text #3
ID : 6
Format : UTF-8
Codec ID : S_TEXT/UTF8
Codec ID/Info : UTF-8 Plain Text
Title : Full
Language : English
Default : No
Forced : No

Menu
00:00:00.000 : :1
00:10:12.695 : :2
00:18:31.235 : :3
00:29:08.413 : :4
00:40:18.499 : :5
00:50:08.422 : :6
01:00:00.263 : :7
01:08:15.758 : :8
01:19:31.475 : :9
01:28:34.226 : :10
01:39:50.776 : :11
01:49:38.363 : :12
01:54:43.460 : :13





















_________________
Проголосуй за трекер Открытый торрент трекер - RUS-MEDIA.ORG

Проголосуй Открытый торрент трекер - RUS-MEDIA.ORG


Скачать книги и аудио книги через торрент


Вернуться к началу
 Профиль Отправить личное сообщение  
 
   Похожие торренты   Автор   Торрент   Размер 
В этой теме нет новых непрочитанных сообщений. Меч короля Артура / King Arthur: Legend of the Sword [Фэнтези, Боевик, Драма, Приключения, 2017] BDRip 1080p, Dub [3D-Video] [Лицензия]

salma3

390 | 280

15.82 ГБ

В этой теме нет новых непрочитанных сообщений. Легенда о потерянном / Legend of the Lost [Драма, приключения, 1957] BDRip 720p, Avo

salma3

0 | 0

5.55 ГБ

В этой теме нет новых непрочитанных сообщений. Легенда / Legend [фэнтези, мелодрама, приключения, 1985] BDRip 1080p, Mvo [Director's Cut]

salma3

0 | 0

13.74 ГБ

В этой теме нет новых непрочитанных сообщений. Легенда / Legend [Триллер, драма, криминал, 2015] BDRemux 1080p, Dub [Лицензия]

salma3

0 | 0

26.58 ГБ

В этой теме нет новых непрочитанных сообщений. Тарзан. Легенда / The Legend of Tarzan [Боевик, драма, мелодрама, 2016] BDRemux 1080p, Dub [Лицензия]

salma3

0 | 0

34.66 ГБ

В этой теме нет новых непрочитанных сообщений. Легенда Зорро / The Legend of Zorro [Боевик, приключения, вестерн, 2005] BDRemux 1080p, Dub

salma3

3 | 19

30.1 ГБ

В этой теме нет новых непрочитанных сообщений. Легенда / Legend [криминал, триллер, драма, 2015] HDRip, Dub [лицензия]

salma3

705 | 17

1.45 ГБ


Начать новую тему Ответить на тему  [ 1 сообщение ] 




Для Мосгорсуда, Роскомнадзора и рекламодателей:: mosgorsud-torrent[собачка]yandex.ru
cron