Торрент файл
скачать торрент магнет ссылка Добавлен: 24 июл 2017, 00:19
Размер: 6.73 ГБ
Сидеров: 154
Личеров: 95
Статус: (salma3)
Автор

СообщениеДобавлено: 24 июл 2017, 00:19 

Не в сети
Супермодератор
Аватара пользователя
Дата регистрации:
15 фев 2012, 16:44
Возраст: 28
Спасибо: 6659 / 2146
Сообщения: 46020
Год выпуска: 2017
Жанр: фантастика, боевик, триллер
Режиссер: Руперт Сандерс

В ролях: Скарлетт Йоханссон, Йохан Филип Асбек, Такеши Китано, Жюльетт Бинош, Майкл Питт, Чин Хань, Дануся Самал, Ласарус Ратуэре, Ютака Идзумихара, Таванда Маниймо

О фильме:
Кибер-технологии подчинили себе все сферы жизни, а самые опасные преступники переместились в виртуальное пространство. Киборг-гибрид, стоящий во главе элитного подразделения полиции, идет по следу могущественного хакера.



Страна: США
Продолжительность: 01:46:57
Перевод: Профессиональный (дублированный) Blu-ray CEE

Релиз:

Формат 3D: Half OverUnder / Вертикальная анаморфная стереопара
Порядок ракурсов: левый ракурс первый

Файл
Качество: BDRip 1080p
Формат: Matroska
Видео: 1920x1080 at 23.976 fps, x264@L4.1, ~7535 kbps avg
Aудио#1: Russian: 48 kHz, AC3 Dolby Digital, 3/2 (L,C,R,l,r) + LFE ch, ~640 kbps avg |Дубляж, Blu-ray CEE|
Aудио#2: Ukrainian: 48 kHz, AC3 Dolby Digital, 2/0 (L,R) ch, ~192 kbps avg |Дубляж, iTunes Russia|
Aудио#3: English: 48 kHz, AC3 Dolby Digital, 3/2 (L,C,R,l,r) + LFE ch, ~640 kbps avg
Субтитры: Russian (Full, Forced), Ukrainian (Full, Forced), English

Complete name : GHST_N_TH_SHLL_(2017)_3D_HOU_BDRIP_1080P -BLUEBIRD.mkv
Format : Matroska
Format version : Version 4 / Version 2
File size : 6.73 GiB
Duration : 1 h 46 min
Overall bit rate : 9 010 kb/s
Movie name : Ghost in the Shell (2017) 3D HOU BDRip 1080p -BLUEBIRD
Encoded date : UTC 2017-07-23 16:59:04
Writing application : mkvmerge v12.0.0 ('Trust / Lust') 64bit
Writing library : libebml v1.3.4 + libmatroska v1.4.5

Video
ID : 1
Format : AVC
Format/Info : Advanced Video Codec
Format profile : High@L4.1
Format settings, CABAC : Yes
Format settings, ReFrames : 4 frames
Codec ID : V_MPEG4/ISO/AVC
Duration : 1 h 46 min
Bit rate : 7 535 kb/s
Width : 1 920 pixels
Height : 1 080 pixels
Display aspect ratio : 16:9
Frame rate mode : Constant
Frame rate : 23.976 (24000/1001) FPS
Color space : YUV
Chroma subsampling : 4:2:0
Bit depth : 8 bits
Scan type : Progressive
Bits/(Pixel*Frame) : 0.152
Stream size : 5.63 GiB (84%)
Title : GHST_N_TH_SHLL_(2017)_3D_HOU_BDRIP_1080P -BLUEBIRD
Writing library : x264 core 148 r2744 b97ae06
Encoding settings : cabac=1 / ref=4 / deblock=1:-3:-3 / analyse=0x3:0x113 / me=umh / subme=10 / psy=1 / psy_rd=1.00:0.15 / mixed_ref=1 / me_range=32 / chroma_me=1 / trellis=2 / 8x8dct=1 / cqm=0 / deadzone=21,11 / fast_pskip=1 / chroma_qp_offset=-2 / threads=4 / lookahead_threads=1 / sliced_threads=0 / nr=0 / decimate=1 / interlaced=0 / bluray_compat=0 / constrained_intra=0 / bframes=12 / b_pyramid=2 / b_adapt=1 / b_bias=0 / direct=1 / weightb=1 / open_gop=1 / weightp=2 / keyint=250 / keyint_min=23 / scenecut=40 / intra_refresh=0 / rc_lookahead=60 / rc=crf / mbtree=1 / crf=16.5 / qcomp=0.60 / qpmin=0 / qpmax=69 / qpstep=4 / vbv_maxrate=42500 / vbv_bufsize=58125 / crf_max=0.0 / nal_hrd=none / filler=0 / frame-packing=4 / ip_ratio=1.40 / aq=1:0.90
Default : Yes
Forced : No

Audio #1
ID : 2
Format : AC-3
Format/Info : Audio Coding 3
Format settings, Endianness : Big
Codec ID : A_AC3
Duration : 1 h 46 min
Bit rate mode : Constant
Bit rate : 640 kb/s
Channel(s) : 6 channels
Channel positions : Front: L C R, Side: L R, LFE
Sampling rate : 48.0 kHz
Frame rate : 31.250 FPS (1536 spf)
Bit depth : 16 bits
Compression mode : Lossy
Stream size : 490 MiB (7%)
Language : Russian
Service kind : Complete Main
Default : Yes
Forced : No

Audio #2
ID : 3
Format : AC-3
Format/Info : Audio Coding 3
Mode : Dolby Digital
Format settings, Endianness : Big
Codec ID : A_AC3
Duration : 1 h 46 min
Bit rate mode : Constant
Bit rate : 192 kb/s
Channel(s) : 2 channels
Channel positions : Front: L R
Sampling rate : 48.0 kHz
Frame rate : 31.250 FPS (1536 spf)
Bit depth : 16 bits
Compression mode : Lossy
Stream size : 147 MiB (2%)
Title : iTunes
Language : Ukrainian
Service kind : Complete Main
Default : No
Forced : No

Audio #3
ID : 4
Format : AC-3
Format/Info : Audio Coding 3
Format settings, Endianness : Big
Codec ID : A_AC3
Duration : 1 h 46 min
Bit rate mode : Constant
Bit rate : 640 kb/s
Channel(s) : 6 channels
Channel positions : Front: L C R, Side: L R, LFE
Sampling rate : 48.0 kHz
Frame rate : 31.250 FPS (1536 spf)
Bit depth : 16 bits
Compression mode : Lossy
Stream size : 490 MiB (7%)
Language : English
Service kind : Complete Main
Default : No
Forced : No

Text #1
ID : 5
Format : UTF-8
Codec ID : S_TEXT/UTF8
Codec ID/Info : UTF-8 Plain Text
Duration : 1 h 44 min
Bit rate : 4 b/s
Count of elements : 75
Stream size : 3.56 KiB (0%)
Title : forced
Language : Russian
Default : Yes
Forced : Yes

Text #2
ID : 6
Format : UTF-8
Codec ID : S_TEXT/UTF8
Codec ID/Info : UTF-8 Plain Text
Duration : 1 h 44 min
Bit rate : 56 b/s
Count of elements : 916
Stream size : 43.0 KiB (0%)
Title : full
Language : Russian
Default : No
Forced : No

Text #3
ID : 7
Format : UTF-8
Codec ID : S_TEXT/UTF8
Codec ID/Info : UTF-8 Plain Text
Duration : 1 h 44 min
Bit rate : 4 b/s
Count of elements : 76
Stream size : 3.52 KiB (0%)
Title : forced
Language : Ukrainian
Default : No
Forced : No

Text #4
ID : 8
Format : UTF-8
Codec ID : S_TEXT/UTF8
Codec ID/Info : UTF-8 Plain Text
Duration : 1 h 44 min
Bit rate : 57 b/s
Count of elements : 971
Stream size : 44.1 KiB (0%)
Title : full
Language : Ukrainian
Default : No
Forced : No

Text #5
ID : 9
Format : UTF-8
Codec ID : S_TEXT/UTF8
Codec ID/Info : UTF-8 Plain Text
Duration : 1 h 34 min
Bit rate : 35 b/s
Count of elements : 881
Stream size : 24.6 KiB (0%)
Title : full
Language : English
Default : No
Forced : No

Menu
00:00:00.000 : en:Chapter 01
00:08:09.322 : en:Chapter 02
00:14:39.962 : en:Chapter 03
00:21:26.493 : en:Chapter 04
00:28:02.681 : en:Chapter 05
00:34:13.217 : en:Chapter 06
00:39:27.615 : en:Chapter 07
00:43:57.801 : en:Chapter 08
00:51:49.815 : en:Chapter 09
00:55:19.065 : en:Chapter 10
01:01:06.871 : en:Chapter 11
01:07:49.732 : en:Chapter 12
01:14:36.972 : en:Chapter 13
01:20:31.743 : en:Chapter 14
01:27:46.177 : en:Chapter 15
01:33:41.407 : en:Chapter 16
01:38:00.082 : en:Chapter 17


_________________
Проголосуй за трекер Открытый торрент трекер - RUS-MEDIA.ORG

Проголосуй Открытый торрент трекер - RUS-MEDIA.ORG



реклама партнёра


Вернуться к началу
 Профиль Отправить личное сообщение  
 
   Похожие торренты   Автор   Торрент   Размер 
В этой теме нет новых непрочитанных сообщений. Призрак в доспехах / Ghost in the Shell [фантастика, боевик, триллер, 2017] BDRip 1080p, Dub [Лицензия]

salma3

260 | 185

15.15 ГБ

В этой теме нет новых непрочитанных сообщений. Призрак в доспехах / Ghost in the Shell [фантастика, боевик, триллер, 2017] BDRip, Dub [Лицензия]

salma3

1711 | 299

1.46 ГБ

В этой теме нет новых непрочитанных сообщений. Призрак в доспехах / Ghost in the Shell [фантастика, боевик, триллер, 2017] BDRip 720p, Dub [Лицензия]

salma3

401 | 115

5.07 ГБ

В этой теме нет новых непрочитанных сообщений. Призрак в доспехах / Ghost in the Shell [Фантастика, боевик, триллер, 2017] UHD BDRip 2160p, Dub [4K] [Лицензия]

salma3

33 | 6

12.17 ГБ

В этой теме нет новых непрочитанных сообщений. Призрак в доспехах / Ghost in the Shell [Фантастика, боевик, триллер, 2017] Blu-Ray, Dub [Лицензия]

salma3

70 | 54

38.15 ГБ

В этой теме нет новых непрочитанных сообщений. Призрак в доспехах / Ghost in the Shell [фантастика, боевик, триллер, 2017] UHD BDRemux 2160p, Dub [4K] [Лицензия]

salma3

17 | 8

55.19 ГБ

В этой теме нет новых непрочитанных сообщений. Призрак в доспехах / Ghost in the Shell [Фантастика, боевик, триллер, 2017] UHD BDRemux 2160p, Dub [4K] [Лицензия]

salma3

20 | 9

51.87 ГБ


Начать новую тему Ответить на тему  [ 1 сообщение ] 




Для Мосгорсуда, Роскомнадзора и рекламодателей:: mosgorsud-torrent[собачка]yandex.ru