Торрент файл
скачать торрент магнет ссылка Добавлен: 19 мар 2017, 13:30
Размер: 8.46 ГБ
Сидеров: 50
Личеров: 39
Статус: (salma3)
Автор

СообщениеДобавлено: 19 мар 2017, 13:30 

Не в сети
Супермодератор
Аватара пользователя
Дата регистрации:
15 фев 2012, 16:44
Возраст: 28
Спасибо: 7223 / 2147
Сообщения: 67697
Год выхода: 2014
Жанр: фэнтези, фантастика, приключения
Режиссер: Стюарт Битти

В ролях: Аарон Экхарт, Ивонн Страховски, Миранда Отто, Билл Найи, Джай Кортни, Сократис Отто, Аден Янг, Кэйтлин Стэйси, Махеш Джаду, Стив Музакис

О фильме:
Он — монстр. Он — двухсотлетний плод безумной фантазии своего создателя. Он — легенда. Мир, в котором он живет, населен древними горгульями и бессмертными демонами, которые сражаются за обладание человечеством. Величественные соборы скрывают огромные арсеналы, за дверьми научных лабораторий проводятся эксперименты по воскрешению мертвых. Война двух кланов могущественных существ достигает своего пика. И только он, Адам, монстр Франкенштейна, в силах ее остановить.
Идея фильма «Я, Франкенштейн» родилась в воображении сценариста, писателя и актера Кевина Гревье, который в одном из своих графических романов перенес монстра, созданного Франкенштейном, на несколько столетий вперед в обстановку пугающего современного города.



Страна: Австралия, США
Студия: Hopscotch Features, Lakeshore Entertainment, Lionsgate
Продолжительность: 01:32:23
Перевод: Дубляж (Blu-ray RUS)

Файл
Исходник: Blu-ray USA Transfer
Кодек: H.265/HEVC
Качество: BDRip 1080p HEVC
Видео: 1920x2160 px, ~11,3 Mb/s (avg), 23,976 fps
Звук: Русский DTS, 1509 kbps, 5.1 ch, 16 bits
Субтитры: Нет
3D: Левый ракурс сверху

Семпл

General
Unique ID : 236958156304706776139914740004797501499 (0xB2447B1AE99B6D83B57F7F1B5217503B)
Complete name : I, Frankenstein (2014) 1080p HEVC 3D-ab.mkv
Format : Matroska
Format version : Version 3 / Version 2
File size : 8.46 GiB
Duration : 1 h 32 min
Overall bit rate : 13.1 Mb/s
Movie name : I, Frankenstein (2014) 3D Full-T&B (x265)
Encoded date : UTC 2017-03-19 00:26:24
Writing application : mkvmerge v9.8.0 ('Kuglblids') 64bit
Writing library : libebml v1.3.4 + libmatroska v1.4.5

Video
ID : 1
Format : HEVC
Format/Info : High Efficiency Video Coding
Format profile : Main 10@L5@High
MultiView_Count : 2
MultiView_Layout : Top-Bottom (left eye first)
Codec ID : V_MPEGH/ISO/HEVC
Duration : 1 h 32 min
Bit rate : 11.3 Mb/s
Width : 1 920 pixels
Height : 2 160 pixels
Display aspect ratio : 0.889
Original display aspect ratio : 16:9
Frame rate mode : Constant
Frame rate : 23.976 (24000/1001) FPS
Color space : YUV
Chroma subsampling : 4:2:0
Bit depth : 10 bits
Bits/(Pixel*Frame) : 0.114
Stream size : 7.32 GiB (87%)
Title : 3D Full-T&B (x265)
Writing library : x265 2.3+7-c15f8bce9f4b:[Windows][GCC 6.3.0][64 bit] 10bit
Encoding settings : cpuid=1050111 / frame-threads=3 / numa-pools=8 / wpp / no-pmode / no-pme / no-psnr / no-ssim / log-level=2 / input-csp=1 / input-res=1920x2160 / interlace=0 / total-frames=132918 / level-idc=50 / high-tier=1 / uhd-bd=0 / ref=1 / no-allow-non-conformance / no-repeat-headers / annexb / no-aud / no-hrd / info / hash=0 / no-temporal-layers / open-gop / min-keyint=23 / keyint=250 / bframes=4 / b-adapt=2 / b-pyramid / bframe-bias=0 / rc-lookahead=40 / lookahead-slices=2 / scenecut=40 / no-intra-refresh / ctu=32 / min-cu-size=8 / no-rect / no-amp / max-tu-size=16 / tu-inter-depth=1 / tu-intra-depth=1 / limit-tu=0 / rdoq-level=2 / dynamic-rd=4.00 / signhide / no-tskip / nr-intra=0 / nr-inter=0 / no-constrained-intra / no-strong-intra-smoothing / max-merge=2 / limit-refs=0 / no-limit-modes / me=3 / subme=7 / merange=25 / temporal-mvp / weightp / weightb / no-analyze-src-pics / no-deblock / no-sao / no-sao-non-deblock / rd=3 / early-skip / no-rskip / no-fast-intra / no-tskip-fast / no-cu-lossless / no-b-intra / rdpenalty=0 / psy-rd=2.50 / psy-rdoq=1.00 / no-rd-refine / analysis-mode=0 / no-lossless / cbqpoffs=0 / crqpoffs=0 / rc=crf / crf=24.0 / qcomp=0.80 / qpstep=1 / stats-write=0 / stats-read=0 / vbv-maxrate=100000 / vbv-bufsize=100000 / vbv-init=0.9 / crf-max=0.0 / crf-min=0.0 / ipratio=1.10 / pbratio=1.10 / aq-mode=3 / aq-strength=0.90 / no-cutree / zone-count=0 / no-strict-cbr / qg-size=16 / no-rc-grain / qpmax=51 / qpmin=0 / sar=16 / overscan=0 / videoformat=5 / range=0 / colorprim=1 / transfer=2 / colormatrix=2 / chromaloc=0 / display-window=0 / max-cll=0,0 / min-luma=0 / max-luma=1023 / log2-max-poc-lsb=8 / vui-timing-info / vui-hrd-info / slices=1 / opt-qp-pps / opt-ref-list-length-pps / no-multi-pass-opt-rps / scenecut-bias=0.05 / no-opt-cu-delta-qp / aq-motion / no-hdr / no-hdr-opt / Capture-colorprim=3
Default : Yes
Forced : No
Color range : Limited
Color primaries : BT.709

Audio
ID : 2
Format : DTS
Format/Info : Digital Theater Systems
Mode : 16
Format settings, Endianness : Big
Codec ID : A_DTS
Duration : 1 h 32 min
Bit rate mode : Constant
Bit rate : 1 509 kb/s
Channel(s) : 6 channels
Channel positions : Front: L C R, Side: L R, LFE
Sampling rate : 48.0 kHz
Frame rate : 93.750 FPS (512 spf)
Bit depth : 16 bits
Compression mode : Lossy
Stream size : 997 MiB (12%)
Title : Russian (DTS 5.1 48KHz)
Language : Russian
Default : Yes
Forced : No

Menu
00:00:00.000 : :1 - 0:00:00
00:02:28.857 : :2 - 0:02:29
00:04:56.421 : :3 - 0:04:56
00:09:19.767 : :4 - 0:09:20
00:12:02.471 : :5 - 0:12:02
00:17:39.725 : :6 - 0:17:40
00:21:26.994 : :7 - 0:21:27
00:24:58.497 : :8 - 0:24:58
00:29:42.614 : :9 - 0:29:43
00:33:49.569 : :10 - 0:33:50
00:37:56.273 : :11 - 0:37:56
00:43:54.632 : :12 - 0:43:55
00:48:23.233 : :13 - 0:48:23
00:52:29.187 : :14 - 0:52:29
00:56:04.736 : :15 - 0:56:05
00:59:56.301 : :16 - 0:59:56
01:06:15.513 : :17 - 1:06:16
01:08:58.467 : :18 - 1:08:58
01:12:59.333 : :19 - 1:12:59
01:16:24.538 : :20 - 1:16:25
01:20:22.859 : :21 - 1:20:23
01:22:00.665 : :22 - 1:22:01
01:32:23.537 : :23 - 1:32:24


_________________
Проголосуй за трекер Открытый торрент трекер - RUS-MEDIA.ORG

Проголосуй Открытый торрент трекер - RUS-MEDIA.ORG


Вернуться к началу
 Профиль Отправить личное сообщение  
 
   Похожие торренты   Автор   Торрент   Размер 
В этой теме нет новых непрочитанных сообщений. Малефисента / Maleficent [фэнтези, семейный, мелодрама, 2014] BDRip-HEVC 1080p, Dub [3D-Video] [Лицензия]

salma3

40 | 18

5.84 ГБ

В этой теме нет новых непрочитанных сообщений. Виктор Франкенштейн / Victor Frankenstein [ужасы, фантастика, драма, 2015] BDRip, Dub [лицензия]

salma3

1199 | 24

1.46 ГБ

В этой теме нет новых непрочитанных сообщений. Варкрафт / Warcraft [Фэнтези, Боевик, Приключения, 2016] BDRip 1080p HEVC, Dub [Extended] [3D-Video]

salma3

63 | 101

9.74 ГБ

В этой теме нет новых непрочитанных сообщений. Франкенштейн и монстр из ада / Frankenstein and the Monster from Hell [Ужасы, фантастика, 1973] BDRip, Mvo

salma3

3 | 1

1.46 ГБ

В этой теме нет новых непрочитанных сообщений. Виктор Франкенштейн / Victor Frankenstein [фантастика, триллер, драма, 2015] BDRip 720p, Dub

salma3

54 | 13

5.61 ГБ

В этой теме нет новых непрочитанных сообщений. Лига справедливости / Justice League [фантастика, фэнтези, боевик, 2017] BDRip-HEVC 1080p, Dub [Лицензия]

salma3

0 | 0

8.11 ГБ

В этой теме нет новых непрочитанных сообщений. Чёрная Пантера / Black Panther [Фантастика, боевик, приключения, 2018] BDRip-HEVC 1080p, Dub [Лицензия]

salma3

167 | 35

6.25 ГБ


Начать новую тему Ответить на тему  [ 1 сообщение ] 




Для Мосгорсуда, Роскомнадзора и рекламодателей:: mosgorsud-torrent[собачка]yandex.ru
cron