Торрент файл
скачать торрент магнет ссылка Добавлен: 03 мар 2017, 23:06
Размер: 6.37 ГБ
Сидеров: 59
Личеров: 34
Статус: (salma3)
Автор

СообщениеДобавлено: 03 мар 2017, 23:06 

Не в сети
Супермодератор
Аватара пользователя
Дата регистрации:
15 фев 2012, 16:44
Возраст: 28
Спасибо: 7290 / 2147
Сообщения: 70662
Год выхода: 2016
Жанр: фантастика, боевик, комедия
Режиссер: Дэйв Грин

В ролях: Меган Фокс, Стивен Амелл, Алан Ричсон, Лора Линни, Уилл Арнетт, Ноэль Фишер, Стефен Фаррелли, Алессандра Амброзио, Брэд Гэррет, Тайлер Перри

О фильме:
Долгое время черепашки-ниндзя скрывались от людей в лабиринтах городской канализации. На протяжении нескольких лет учитель Сплинтер обучал их боевым искусствам и прививал им чувство справедливости. В один прекрасный момент им пришлось подняться наверх, чтобы спасти Нью-Йорк от Шредера, предводителя Клана Футов, захватившего власть в Нью-Йорке. Вместе с отважным репортером Эйприл и ее оператором Верном, бесстрашные воины смогли одержать победу и очистить любимый город от преступности. Леонардо, Микеланджело, Рафаэль и Донателло нашли свое предназначение в этом мире и стали защитниками своего города. Они навели порядок в Нью-Йорке и с чистой совестью могли отправиться на покой, но однажды им вновь пришлось столкнуться с могущественным врагом, угрожающим их городу.



Страна: США, Гонконг, Китай, Канада
Продолжительность: 01:52:07
Перевод: Дублированный

Файл
Кодек: x264
Качество: BDRip 1080
Видео: AVC / 1920х1080p / 24 fps / 8 Mbps
Звук: Русский / MP3 / 48 KHz / 2 ch / 192 Kbps
Субтитры: Отсутствуют

Общее
Уникальный идентификатор : 238026312717228492219877859214226935556 (0xB312334843B795DDFC9DCFE11CD8CF04)
Полное имя : D:TMNT2.3D.HSBS.tf45.mkv
Формат : Matroska
Версия формата : Version 4 / Version 2
Размер файла : 6,37 Гбайт
Продолжительность : 1 ч. 52 м.
Общий поток : 8134 Кбит/сек
Программа кодирования : Lavf56.15.102
Библиотека кодирования : Lavf56.15.102 / Lavf56.15.102

Видео
Идентификатор : 1
Формат : AVC
Формат/Информация : Advanced Video Codec
Профиль формата : Baseline@L4
Параметр CABAC формата : Нет
Параметр ReFrames формата : 2 кадра
Идентификатор кодека : V_MPEG4/ISO/AVC
Продолжительность : 1 ч. 52 м.
Битрейт : 8000 Кбит/сек
Ширина : 1920 пикселей
Высота : 1080 пикселей
Соотношение сторон : 16:9
Режим частоты кадров : Постоянный
Частота кадров : 23,976 кадра/сек
Цветовое пространство : YUV
Субдискретизация насыщенности : 4:2:0
Битовая глубина : 8 бит
Тип развёртки : Прогрессивная
Бит/(Пиксели*Кадры) : 0.161
Размер потока : 6,09 Гбайт (96%)
Библиотека кодирования : x264 core 142
Настройки программы : cabac=0 / ref=2 / deblock=1:0:0 / analyse=0x1:0x111 / me=hex / subme=4 / psy=1 / psy_rd=1.00:0.00 / mixed_ref=0 / me_range=16 / chroma_me=1 / trellis=1 / 8x8dct=0 / cqm=0 / deadzone=21,11 / fast_pskip=1 / chroma_qp_offset=0 / threads=3 / lookahead_threads=1 / sliced_threads=0 / nr=0 / decimate=1 / interlaced=0 / bluray_compat=0 / constrained_intra=0 / bframes=0 / weightp=0 / keyint=250 / keyint_min=23 / scenecut=40 / intra_refresh=0 / rc_lookahead=20 / rc=abr / mbtree=1 / bitrate=8000 / ratetol=1.0 / qcomp=0.60 / qpmin=0 / qpmax=69 / qpstep=4 / ip_ratio=1.40 / aq=1:1.00
Default : Да
Forced : Нет

Аудио
Идентификатор : 2
Формат : MPEG Audio
Версия формата : Version 1
Профиль формата : Layer 3
Режим : Joint stereo
Расширение режима : MS Stereo
Идентификатор кодека : A_MPEG/L3
Идентификатор кодека/Подсказка : MP3
Продолжительность : 1 ч. 52 м.
Вид битрейта : Постоянный
Битрейт : 192 Кбит/сек
Каналы : 2 канала
Частота : 48,0 КГц
Метод сжатия : С потерями
Задержка видео : -23 мс.
Размер потока : 154 Мбайт (2%)
Библиотека кодирования : LAME3.98.4
Default : Да
Forced : Нет


Релиз от:


_________________
Проголосуй за трекер Открытый торрент трекер - RUS-MEDIA.ORG

Проголосуй Открытый торрент трекер - RUS-MEDIA.ORG


Вернуться к началу
 Профиль Отправить личное сообщение  
 
   Похожие торренты   Автор   Торрент   Размер 
В этой теме нет новых непрочитанных сообщений. Черепашки-ниндзя 2 / Teenage Mutant Ninja Turtles: Out of the Shadows [фантастика, боевик, комедия, приключения, 2016] BDRip, Dub [Лицензия]

salma3

1231 | 50

1.46 ГБ

В этой теме нет новых непрочитанных сообщений. Черепашки-ниндзя 2 / Teenage Mutant Ninja Turtles: Out of the Shadows [фантастика, боевик, комедия, приключения, 2016] BDRip, Dub [Лицензия]

salma3

223 | 6

2.18 ГБ

В этой теме нет новых непрочитанных сообщений. Черепашки-ниндзя 2 / Teenage Mutant Ninja Turtles: Out of the Shadows [фантастика, боевик, комедия, приключения, 2016] BDRip 720p, Dub [Лицензия]

salma3

695 | 108

5.39 ГБ

В этой теме нет новых непрочитанных сообщений. Черепашки-ниндзя 2 / Teenage Mutant Ninja Turtles: Out of the Shadows [Фантастика, Боевик, Комедия, 2016] UHD Blu-ray 2160p, Dub [4K]

salma3

11 | 31

64.44 ГБ

В этой теме нет новых непрочитанных сообщений. Черепашки-ниндзя 2 / Teenage Mutant Ninja Turtles: Out of the Shadows [Фантастика, Боевик, Комедия, 2016] HDRip, Avo [Живов]

salma3

10 | 2

740.6 МБ

В этой теме нет новых непрочитанных сообщений. Черепашки-ниндзя 2 / Teenage Mutant Ninja Turtles: Out of the Shadows [фантастика, боевик, комедия, приключения, 2016] WEB-DLRip, Dub [iTunes]

salma3

10896 | 230

1.46 ГБ

В этой теме нет новых непрочитанных сообщений. Черепашки-ниндзя 2 / Teenage Mutant Ninja Turtles: Out of the Shadows [фантастика, боевик, комедия, приключения, 2016] WEB-DL 720p, Dub [iTunes]

marya111

778 | 14

3.58 ГБ


Начать новую тему Ответить на тему  [ 1 сообщение ] 




Для Мосгорсуда, Роскомнадзора и рекламодателей:: mosgorsud-torrent[собачка]yandex.ru
cron