Торрент файл
скачать торрент магнет ссылка Добавлен: 03 ноя 2016, 13:24
Размер: 15.99 ГБ
Сидеров: 183
Личеров: 199
Статус: (salma3)
Автор

СообщениеДобавлено: 03 ноя 2016, 13:24 

Не в сети
Супермодератор
Аватара пользователя
Дата регистрации:
15 фев 2012, 16:44
Возраст: 27
Спасибо: 6234 / 2126
Сообщения: 33943
Год выхода: 2016
Жанр: Фантастика, боевик, триллер, приключения
Режиссер: Джастин Лин

В ролях: Крис Пайн, Закари Куинто, Саймон Пегг, Карл Урбан, Зои Салдана, Джон Чо, Антон Ельчин, Идрис Эльба, София Бутелла, Джо Таслим

О фильме:
Бесстрашная команда крейсера Звездного Флота «Энтерпрайз» исследует неизведанные глубины космоса. Во время этого полного опасностей путешествия герои сталкиваются с таинственной силой, ставящей под угрозу не только их миссию и стабильность Федерации, но и весь миропорядок.



Страна: США
Продолжительность: 2:02:22
Перевод: Профессиональный (полное дублирование)

Файл
Качество: BDRip 1080p
Кодек: x264
Видео: AVC / 1920x1080p / 16:9 / 23,976 fps / 17,1 ММbps / 0.343 bit/pix
Аудио 1: Русский / AC3 / 48 KHz / 5.1 ch / 640 Kbps / Профессиональный (полное дублирование) / Blu-ray CEE
Аудио 2: Английский / AC3 / 48 KHz / 5.1 ch / 640 Kbps
Субтитры : Russian (Forced, iTunes), Russian (iTunes), English (Forced, iTunes), English, English (SDH)
Формат 3D: Half SideBySide / Горизонтальная анаморфная стереопара
Порядок ракурсов: левый ракурс первый
Общее
Уникальный идентификатор : 225884740113017964065313726489897078149 (0xA9EFD188FA8BA94AB4C470AF7ED60D85)
Полное имя : D:TorrentsЗавершенныеStar.Trek.Beyond.2016.1080p.3D.BluRay.Half-SBS.Rus.Eng.HDCLUB.mkv
Формат : Matroska
Версия формата : Version 2
Размер файла : 16,0 Гбайт
Продолжительность : 2 ч. 2 м.
Общий поток : 18,7 Мбит/сек
Название фильма : Star Trek Beyond (2016) [3D] - Release for HDCLUB
Дата кодирования : UTC 2016-11-02 16:01:43
Программа кодирования : mkvmerge v3.4.0 ('Rapunzel') built on May 15 2010 09:38:20
Библиотека кодирования : libebml v0.8.0 + libmatroska v0.9.0
Видео
Идентификатор : 1
Формат : AVC
Формат/Информация : Advanced Video Codec
Профиль формата : High@L4.1
MultiView_Count : 2
MultiView_Layout : Right Eye
Параметр CABAC формата : Да
Параметр ReFrames формата : 4 кадра
Идентификатор кодека : V_MPEG4/ISO/AVC
Продолжительность : 2 ч. 2 м.
Битрейт : 17,1 Мбит/сек
Ширина : 1920 пикселей
Высота : 1080 пикселей
Соотношение сторон : 16:9
Режим частоты кадров : Постоянный
Частота кадров : 23,976 кадра/сек
Цветовое пространство : YUV
Субдискретизация насыщенности : 4:2:0
Битовая глубина : 8 бит
Тип развёртки : Прогрессивная
Бит/(Пиксели*Кадры) : 0.343
Размер потока : 14,6 Гбайт (91%)
Заголовок : Star Trek Beyond (2016) [3D] - Release for HDCLUB
Библиотека кодирования : x264 core 148 r2705kMod 3f5ed56
Настройки программы : opencl=1 / cabac=1 / ref=4 / deblock=1:-3:-3 / analyse=0x3:0x133 / me=umh / subme=10 / psy=1 / fade_compensate=0.00 / psy_rd=1.00:0.00 / mixed_ref=1 / me_range=24 / chroma_me=1 / trellis=2 / 8x8dct=1 / cqm=0 / deadzone=21,11 / fast_pskip=0 / chroma_qp_offset=-2 / threads=34 / lookahead_threads=5 / sliced_threads=0 / nr=0 / decimate=0 / interlaced=0 / bluray_compat=0 / constrained_intra=0 / fgo=0 / bframes=9 / b_pyramid=2 / b_adapt=2 / b_bias=0 / direct=3 / weightb=1 / open_gop=0 / weightp=2 / keyint=250 / keyint_min=23 / scenecut=40 / intra_refresh=0 / rc=crf / mbtree=0 / crf=17.0000 / qcomp=0.65 / qpmin=0 / qpmax=69 / qpstep=4 / frame-packing=3 / ip_ratio=1.30 / pb_ratio=1.25 / aq=3:0.85
Язык : English
Default : Да
Forced : Нет
Аудио #1
Идентификатор : 2
Формат : AC-3
Формат/Информация : Audio Coding 3
Расширение режима : CM (complete main)
Параметр Endianness формата : Big
Идентификатор кодека : A_AC3
Продолжительность : 2 ч. 2 м.
Вид битрейта : Постоянный
Битрейт : 640 Кбит/сек
Каналы : 6 каналов
Расположение каналов : Front: L C R, Side: L R, LFE
Частота : 48,0 КГц
Метод сжатия : С потерями
Размер потока : 560 Мбайт (3%)
Заголовок : AC3 5.1 @ 640 kbps - DUB, Blu-ray CEE
Язык : Russian
Default : Да
Forced : Нет
Аудио #2
Идентификатор : 3
Формат : AC-3
Формат/Информация : Audio Coding 3
Расширение режима : CM (complete main)
Параметр Endianness формата : Big
Идентификатор кодека : A_AC3
Продолжительность : 2 ч. 2 м.
Вид битрейта : Постоянный
Битрейт : 640 Кбит/сек
Каналы : 6 каналов
Расположение каналов : Front: L C R, Side: L R, LFE
Частота : 48,0 КГц
Метод сжатия : С потерями
Размер потока : 560 Мбайт (3%)
Заголовок : AC3-EX 5.1 @ 640 kbps
Язык : English
Default : Нет
Forced : Нет
Текст #1
Идентификатор : 4
Формат : UTF-8
Идентификатор кодека : S_TEXT/UTF8
Идентификатор кодека/Информация : UTF-8 Plain Text
Заголовок : Forced, iTunes
Язык : Russian
Default : Да
Forced : Нет
Текст #2
Идентификатор : 5
Формат : UTF-8
Идентификатор кодека : S_TEXT/UTF8
Идентификатор кодека/Информация : UTF-8 Plain Text
Заголовок : iTunes
Язык : Russian
Default : Нет
Forced : Нет
Текст #3
Идентификатор : 6
Формат : UTF-8
Идентификатор кодека : S_TEXT/UTF8
Идентификатор кодека/Информация : UTF-8 Plain Text
Заголовок : Forced, iTunes
Язык : English
Default : Нет
Forced : Нет
Текст #4
Идентификатор : 7
Формат : UTF-8
Идентификатор кодека : S_TEXT/UTF8
Идентификатор кодека/Информация : UTF-8 Plain Text
Язык : English
Default : Нет
Forced : Нет
Текст #5
Идентификатор : 8
Формат : UTF-8
Идентификатор кодека : S_TEXT/UTF8
Идентификатор кодека/Информация : UTF-8 Plain Text
Заголовок : SDH
Язык : English
Default : Нет
Forced : Нет
Меню
00:00:00.000 : en:00:00:00.000
00:08:26.548 : en:00:08:26.548
00:16:11.637 : en:00:16:11.637
00:32:38.290 : en:00:32:38.290
00:42:16.367 : en:00:42:16.367
00:52:22.264 : en:00:52:22.264
00:59:50.629 : en:00:59:50.629
01:12:05.530 : en:01:12:05.530
01:22:34.449 : en:01:22:34.449
01:33:00.950 : en:01:33:00.950
01:40:33.319 : en:01:40:33.319
01:47:38.994 : en:01:47:38.994
01:52:32.663 : en:01:52:32.663
01:55:41.351 : en:01:55:41.351

Релиз от:


_________________
Проголосуй за трекер Открытый торрент трекер - RUS-MEDIA.ORG

Проголосуй Открытый торрент трекер - RUS-MEDIA.ORG



реклама партнёра


Вернуться к началу
 Профиль Отправить личное сообщение  
 
   Похожие торренты   Автор   Торрент   Размер 
В этой теме нет новых непрочитанных сообщений. Стартрек: Бесконечность / Star Trek Beyond [Фантастика, боевик, триллер, приключения, 2016] Blu-Ray 1080p, Dub [лицензия] [3D-Video]

salma3

51 | 76

44.75 ГБ

В этой теме нет новых непрочитанных сообщений. Стартрек: Бесконечность / Star Trek Beyond [Фантастика, боевик, триллер, приключения, 2016] BDRemux 1080p, Dub [лицензия] [3D-Video]

salma3

11 | 14

37.96 ГБ

В этой теме нет новых непрочитанных сообщений. Стартрек: Бесконечность / Star Trek Beyond [Фантастика, боевик, триллер, приключения, 2016] BDRip 1080p, Dub [лицензия]

salma3

533 | 176

10.26 ГБ

В этой теме нет новых непрочитанных сообщений. Стартрек: Бесконечность / Star Trek Beyond ( Фантастика, боевик, триллер, приключения, 2016) BDRemux 1080p от ExKinoRay | 3D-Video | iTunes

marya111

0 | 0

39.51 ГБ

В этой теме нет новых непрочитанных сообщений. Стартрек: Бесконечность / Star Trek Beyond [Фантастика, боевик, триллер, приключения, 2016] Blu-Ray CEE 1080p, Dub [лицензия]

salma3

50 | 137

43.89 ГБ

В этой теме нет новых непрочитанных сообщений. Стартрек: Бесконечность / Star Trek Beyond (фантастика, боевик, триллер, приключения, 2016) BDRip-AVC | Лицензия

marya111

0 | 0

745.25 МБ

В этой теме нет новых непрочитанных сообщений. Стартрек: Бесконечность / Star Trek Beyond [фантастика, боевик, триллер, приключения, 2016] BDRip 720p, Dub [лицензия]

salma3

495 | 104

5.4 ГБ


Начать новую тему Ответить на тему  [ 1 сообщение ] 




Для Мосгорсуда, Роскомнадзора и рекламодателей:: mosgorsud-torrent[собачка]yandex.ru