Торрент файл
скачать торрент магнет ссылка Добавлен: 12 окт 2016, 11:48
Размер: 8.33 ГБ
Сидеров: 870
Личеров: 296
Статус: (salma3)
Автор

СообщениеДобавлено: 12 окт 2016, 11:48 

Не в сети
Супермодератор
Аватара пользователя
Дата регистрации:
15 фев 2012, 16:44
Возраст: 28
Спасибо: 6468 / 2129
Сообщения: 40860
Год выхода: 2016
Жанр: Фантастика, боевик, приключения
Режиссер: Роланд Эммерих

Роли озвучивают: Лиам Хемсворт, Джефф Голдблюм, Джесси Ашер, Билл Пуллман, Майка Монро, Села Уорд, Уильям Фихтнер, Джадд Хёрш, Брент Спайнер, Патрик Ст. Эсприт

О фильме:
Используя инопланетные технологии, жители Земли создали специальную программу по защите планеты. Но ничего не может нас спасти от нового, еще более разрушительного и масштабного инопланетного вторжения — только смелость нескольких героев, которые единственные могут спасти наш мир от уничтожения.



Страна: США
Продолжительность: 01:59:44
Перевод: Профессиональный (полное дублирование)[BD EUR]

Файл
Качество: BDRip 1080p
Кодек: x264
Видео: AVC / 1920x1080p / 16:9 / 23,976 fps / 7037 Кbps / 0.142 bit/pix
Аудио 1: Русский / DTS / 48 KHz / 5.1 ch / 768 Kbps
Аудио 2: Украинский / AC3 / 48 KHz / 5.1 ch / 448 Kbps
Аудио 3: Английский / DTS-ES / 48 KHz / 5.1 ch / 1509 Kbps
Субтитры :
Вшитые (softsub):
#1 - Русские Форсированные (включены по умолчанию)
#2 - Русские
#3 - English Forced
#4 - English
Формат 3D: Half OverUnder / Вертикальная анаморфная стереопара
Порядок ракурсов: левый ракурс первый
Общее
Уникальный идентификатор : 181222723978502135171801754757384893193 (0x88563A215949A716B8052D443313F309)
Полное имя : D:TorrentsЗавершенныеIndependence Day 3D by D_I_A_B_L_O.mkv
Формат : Matroska
Версия формата : Version 4 / Version 2
Размер файла : 8,33 Гбайт
Продолжительность : 1 ч. 59 м.
Общий поток : 9961 Кбит/сек
Название фильма : День независимости: Возрождение в 3D by D_I_A_B_L_O
Дата кодирования : UTC 2016-10-10 13:20:19
Программа кодирования : mkvmerge v7.2.0 ('On Every Street') 64bit built on Sep 13 2014 15:52:10
Библиотека кодирования : libebml v1.3.0 + libmatroska v1.4.1
_STATISTICS_WRITING_APP : mkvmerge v7.2.0 ('On Every Street') 64bit built on Sep 13 2014 15:52:10
_STATISTICS_WRITING_DATE_UTC : 2016-10-10 13:20:19
_STATISTICS_TAGS : BPS DURATION NUMBER_OF_FRAMES NUMBER_OF_BYTES
DURATION : 01:49:45.417000000
NUMBER_OF_FRAMES : 1725
NUMBER_OF_BYTES : 83480
Видео
Идентификатор : 1
Формат : AVC
Формат/Информация : Advanced Video Codec
Профиль формата : High@L4.1
Параметр CABAC формата : Да
Параметр ReFrames формата : 4 кадра
Идентификатор кодека : V_MPEG4/ISO/AVC
Продолжительность : 1 ч. 59 м.
Битрейт : 7037 Кбит/сек
Ширина : 1920 пикселей
Высота : 1080 пикселей
Соотношение сторон : 16:9
Режим частоты кадров : Постоянный
Частота кадров : 23,976 кадра/сек
Цветовое пространство : YUV
Субдискретизация насыщенности : 4:2:0
Битовая глубина : 8 бит
Тип развёртки : Прогрессивная
Бит/(Пиксели*Кадры) : 0.142
Размер потока : 5,89 Гбайт (71%)
Заголовок : День независимости: Возрождение в 3D by D_I_A_B_L_O
Библиотека кодирования : x264 core 148 r2638 7599210
Настройки программы : cabac=1 / ref=4 / deblock=1:-3:-3 / analyse=0x3:0x133 / me=umh / subme=10 / psy=1 / psy_rd=1.05:0.00 / mixed_ref=1 / me_range=32 / chroma_me=1 / trellis=2 / 8x8dct=1 / cqm=0 / deadzone=21,11 / fast_pskip=1 / chroma_qp_offset=-2 / threads=12 / lookahead_threads=2 / sliced_threads=0 / nr=0 / decimate=0 / interlaced=0 / bluray_compat=0 / constrained_intra=0 / bframes=8 / b_pyramid=2 / b_adapt=2 / b_bias=0 / direct=3 / weightb=1 / open_gop=0 / weightp=2 / keyint=240 / keyint_min=23 / scenecut=40 / intra_refresh=0 / rc_lookahead=60 / rc=crf / mbtree=1 / crf=14.5 / qcomp=0.60 / qpmin=0 / qpmax=69 / qpstep=4 / vbv_maxrate=62500 / vbv_bufsize=78125 / crf_max=0.0 / nal_hrd=none / filler=0 / ip_ratio=1.40 / aq=1:0.80
Default : Да
Forced : Нет
Аудио #1
Идентификатор : 2
Формат : DTS
Формат/Информация : Digital Theater Systems
Режим : 16
Параметр Endianness формата : Big
Идентификатор кодека : A_DTS
Продолжительность : 1 ч. 59 м.
Вид битрейта : Постоянный
Битрейт : 768 Кбит/сек
Каналы : 6 каналов
Расположение каналов : Front: L C R, Side: L R, LFE
Частота : 48,0 КГц
Битовая глубина : 24 бит
Метод сжатия : С потерями
Размер потока : 658 Мбайт (8%)
Заголовок : Дубляж
Язык : Russian
Default : Да
Forced : Нет
Аудио #2
Идентификатор : 3
Формат : AC-3
Формат/Информация : Audio Coding 3
Расширение режима : CM (complete main)
Параметр Endianness формата : Big
Идентификатор кодека : A_AC3
Продолжительность : 1 ч. 59 м.
Вид битрейта : Постоянный
Битрейт : 448 Кбит/сек
Каналы : 6 каналов
Расположение каналов : Front: L C R, Side: L R, LFE
Частота : 48,0 КГц
Метод сжатия : С потерями
Размер потока : 384 Мбайт (4%)
Заголовок : Дубляж
Язык : Ukrainian
Default : Нет
Forced : Нет
Аудио #3
Идентификатор : 4
Формат : DTS
Формат/Информация : Digital Theater Systems
Профиль формата : ES
Режим : 16
Параметр Endianness формата : Big
Идентификатор кодека : A_DTS
Продолжительность : 1 ч. 59 м.
Вид битрейта : Постоянный
Битрейт : 1509 Кбит/сек
Каналы : 6 каналов
Расположение каналов : Front: L C R, Side: L R, LFE
Частота : 48,0 КГц
Битовая глубина : 24 бит
Метод сжатия : С потерями
Размер потока : 1,26 Гбайт (15%)
Заголовок : Оригинал
Язык : English
Default : Нет
Forced : Нет
Текст #1
Идентификатор : 5
Формат : UTF-8
Идентификатор кодека : S_TEXT/UTF8
Идентификатор кодека/Информация : UTF-8 Plain Text
Заголовок : forced
Язык : Russian
Default : Да
Forced : Нет
Текст #2
Идентификатор : 6
Формат : UTF-8
Идентификатор кодека : S_TEXT/UTF8
Идентификатор кодека/Информация : UTF-8 Plain Text
Язык : Russian
Default : Нет
Forced : Нет
Текст #3
Идентификатор : 7
Формат : UTF-8
Идентификатор кодека : S_TEXT/UTF8
Идентификатор кодека/Информация : UTF-8 Plain Text
Заголовок : forced
Язык : English
Default : Нет
Forced : Нет
Текст #4
Идентификатор : 8
Формат : UTF-8
Идентификатор кодека : S_TEXT/UTF8
Идентификатор кодека/Информация : UTF-8 Plain Text
Язык : English
Default : Нет
Forced : Нет
Меню
00:00:00.000 : en:1 - 0:00:00
00:05:37.336 : en:2 - 0:05:37
00:09:15.471 : en:3 - 0:09:15
00:14:06.720 : en:4 - 0:14:07
00:19:40.470 : en:5 - 0:19:40
00:22:59.002 : en:6 - 0:22:59
00:27:10.253 : en:7 - 0:27:10
00:31:37.645 : en:8 - 0:31:38
00:39:11.974 : en:9 - 0:39:12
00:43:41.118 : en:10 - 0:43:41
00:47:46.613 : en:11 - 0:47:47
00:52:32.190 : en:12 - 0:52:32
00:59:10.255 : en:13 - 0:59:10
01:02:00.133 : en:14 - 1:02:00
01:07:12.069 : en:15 - 1:07:12
01:09:54.815 : en:16 - 1:09:55
01:13:11.720 : en:17 - 1:13:12
01:18:27.452 : en:18 - 1:18:27
01:22:45.502 : en:19 - 1:22:46
01:27:51.808 : en:20 - 1:27:52
01:32:36.717 : en:21 - 1:32:37
01:39:38.138 : en:22 - 1:39:38
01:47:20.142 : en:23 - 1:47:20
01:50:36.713 : en:24 - 1:50:37
01:59:43.926 : en:25 - 1:59:44


_________________
Проголосуй за трекер Открытый торрент трекер - RUS-MEDIA.ORG

Проголосуй Открытый торрент трекер - RUS-MEDIA.ORG



реклама партнёра


Вернуться к началу
 Профиль Отправить личное сообщение  
 
   Похожие торренты   Автор   Торрент   Размер 
В этой теме нет новых непрочитанных сообщений. День независимости: Возрождение / Independence Day: Resurgence [фантастика, боевик, приключения, 2016] BDRip 1080p, Dub [Лицензия]

salma3

153 | 69

9.12 ГБ

В этой теме нет новых непрочитанных сообщений. День независимости: Возрождение / Independence Day: Resurgence [Фантастика, боевик, приключения, 2016] BDRip 1080p, Dub [Лицензия]

marya111

239 | 38

14.56 ГБ

В этой теме нет новых непрочитанных сообщений. День независимости: Возрождение / Independence Day: Resurgence [фантастика, боевик, приключения, 2016] BDRip, Dub [Лицензия]

salma3

118 | 39

2.05 ГБ

В этой теме нет новых непрочитанных сообщений. День независимости: Возрождение / Independence Day: Resurgence [Фантастика, боевик, приключения, 2016] BDRemux 1080p, Dub [Лицензия]

marya111

311 | 214

27.19 ГБ

В этой теме нет новых непрочитанных сообщений. День независимости: Возрождение / Independence Day: Resurgence [фантастика, боевик, приключения, 2016] BDRip 720p, Dub [Лицензия]

marya111

446 | 28

5.76 ГБ

В этой теме нет новых непрочитанных сообщений. День независимости: Возрождение / Independence Day: Resurgence [фантастика, боевик, приключения, 2016] BDRip 720p, Dub [Лицензия]

salma3

30 | 19

7.12 ГБ

В этой теме нет новых непрочитанных сообщений. День независимости - Возрождение / Independence Day Resurgence [фантастика, боевик, катастрофа, 2016] BDRip, Dub [Лицензия]

salma3

467 | 20

1.37 ГБ


Начать новую тему Ответить на тему  [ 1 сообщение ] 




Для Мосгорсуда, Роскомнадзора и рекламодателей:: mosgorsud-torrent[собачка]yandex.ru