Торрент файл
скачать торрент магнет ссылка Добавлен: 19 сен 2016, 11:10
Размер: 16.44 ГБ
Сидеров: 182
Личеров: 59
Статус: (salma3)
Автор

СообщениеДобавлено: 19 сен 2016, 11:10 

В сети
Супермодератор
Аватара пользователя
Дата регистрации:
15 фев 2012, 16:44
Возраст: 27
Спасибо: 5505 / 2103
Сообщения: 20942
Год выхода: 2016
Жанр: Фантастика, боевик, приключения
Режиссер: Брайан Сингер

В ролях: Джеймс МакЭвой, Майкл Фассбендер, Дженнифер Лоуренс, Эван Питерс, Оливия Манн, Роуз Бирн, Оскар Айзек, Софи Тёрнер, Николас Холт, Тай Шеридан, Бен Харди

О фильме:
События «Дней Минувшего Будущего» оказали колоссальное влияние на мир, где мутанты и люди борются за свое место под Солнцем. В это нелегкое время Людям Икс предстоит столкнуться со своим самым опасным противником — древним мутантом Апокалипсисом, существом, схватка с которым может стать последней не только для мутантов, но и в принципе для всего человечества. В поисках способа победы над неуязвимым и бессмертным монстром Людям Икс предстоит узнать больше о происхождении своего вида. Но Апокалипсис неимоверно силен, и вероятность победы все уменьшается, ведь он твердо убежден, что только сильнейшие имеют право на выживание…



Страна: США
Продолжительность: 02:23:56
Перевод: Профессиональный (полное дублирование)[BD EUR]

Файл
Качество: BDRip 1080p
Кодек: x264
Видео: AVC / 1920x1080p / 16:9 / 23,976 fps / 13,4 Мbps / 0.270 bit/pix
Аудио #1: Русский / DTS / 48 KHz / 5.1 ch / 768 Kbps
Аудио 2: Украинский / AC3 / 48 KHz / 5.1 ch / 448 Kbps
Аудио 3: Английский / DTS-ES / 48 KHz / 5.1 ch / 1509 Kbps
Аудио 4: Английский / AC3 / 48 KHz / 2.0 ch / 224 Kbps / Audio Commentary by Bryan Singer and Simon Kinberg
Субтитры :
Вшитые (softsub):
#1 - Русские Форсированные (включены по умолчанию)
#2 - Русские iTunes
#3 - English Forced, iTunes
#4 - English iTunes
Формат 3D: Half SideBySide / Горизонтальная анаморфная стереопара
Порядок ракурсов: левый ракурс первый
Общее
Уникальный идентификатор : 231093068368524809143741783979152483206 (0xADDAE7F1A7EB0E318AB5277E65F1A386)
Полное имя : D:TorrentsЗавершенныеX-Men.Apocalypse.2016.1080p.3D.BluRay.Half-SBS.DTS.Rus.Ukr.2xEng.HDCLUB.mkv
Формат : Matroska
Версия формата : Version 2
Размер файла : 16,4 Гбайт
Продолжительность : 2 ч. 23 м.
Общий поток : 16,4 Мбит/сек
Название фильма : X-Men: Apocalypse (2016) [3D] - Release for HDCLUB
Дата кодирования : UTC 2016-09-13 22:01:32
Программа кодирования : mkvmerge v3.4.0 ('Rapunzel') built on May 15 2010 09:38:20
Библиотека кодирования : libebml v0.8.0 + libmatroska v0.9.0
Обложка : Yes
Attachments : cover.jpg / cover_land.jpg / small_cover.jpg / small_cover_land.jpg
Видео
Идентификатор : 1
Формат : AVC
Формат/Информация : Advanced Video Codec
Профиль формата : High@L4.1
Параметр CABAC формата : Да
Параметр ReFrames формата : 4 кадра
Идентификатор кодека : V_MPEG4/ISO/AVC
Продолжительность : 2 ч. 23 м.
Битрейт : 13,4 Мбит/сек
Ширина : 1920 пикселей
Высота : 1080 пикселей
Соотношение сторон : 16:9
Режим частоты кадров : Постоянный
Частота кадров : 23,976 (24000/1001) кадра/сек
Цветовое пространство : YUV
Субдискретизация насыщенности : 4:2:0
Битовая глубина : 8 бит
Тип развёртки : Прогрессивная
Бит/(Пиксели*Кадры) : 0.270
Размер потока : 13,1 Гбайт (80%)
Заголовок : X-Men: Apocalypse (2016) [3D] - Release for HDCLUB
Библиотека кодирования : x264 core 148 r2705 3f5ed56
Настройки программы : cabac=1 / ref=4 / deblock=1:-3:-3 / analyse=0x3:0x133 / me=umh / subme=11 / psy=1 / psy_rd=1.00:0.00 / mixed_ref=1 / me_range=48 / chroma_me=1 / trellis=2 / 8x8dct=1 / cqm=0 / deadzone=21,11 / fast_pskip=0 / chroma_qp_offset=-2 / threads=18 / lookahead_threads=3 / sliced_threads=0 / slices=4 / nr=0 / decimate=0 / interlaced=0 / bluray_compat=0 / constrained_intra=0 / bframes=8 / b_pyramid=2 / b_adapt=2 / b_bias=0 / direct=3 / weightb=1 / open_gop=0 / weightp=2 / keyint=250 / keyint_min=23 / scenecut=40 / intra_refresh=0 / rc_lookahead=40 / rc=2pass / mbtree=0 / bitrate=13400 / ratetol=1.0 / qcomp=0.65 / qpmin=0 / qpmax=51 / qpstep=4 / cplxblur=20.0 / qblur=0.5 / vbv_maxrate=62500 / vbv_bufsize=78125 / nal_hrd=none / filler=0 / ip_ratio=1.40 / pb_ratio=1.30 / aq=3:0.75
Язык : English
Default : Да
Forced : Нет
Аудио #1
Идентификатор : 2
Формат : DTS
Формат/Информация : Digital Theater Systems
Режим : 16
Параметр Endianness формата : Big
Идентификатор кодека : A_DTS
Продолжительность : 2 ч. 23 м.
Вид битрейта : Постоянный
Битрейт : 768 Кбит/сек
Каналы : 6 каналов
Расположение каналов : Front: L C R, Side: L R, LFE
Частота : 48,0 КГц
Частота кадров : 93,750 кадра/сек (512 spf)
Битовая глубина : 24 бит
Метод сжатия : С потерями
Размер потока : 791 Мбайт (5%)
Заголовок : DTS 5.1 @ 768 kbps - DUB, Blu-ray EUR
Язык : Russian
Default : Да
Forced : Нет
Аудио #2
Идентификатор : 3
Формат : AC-3
Формат/Информация : Audio Coding 3
Расширение режима : CM (complete main)
Параметр Endianness формата : Big
Идентификатор кодека : A_AC3
Продолжительность : 2 ч. 23 м.
Вид битрейта : Постоянный
Битрейт : 448 Кбит/сек
Каналы : 6 каналов
Расположение каналов : Front: L C R, Side: L R, LFE
Частота : 48,0 КГц
Частота кадров : 31,250 кадров/сек (1536 spf)
Метод сжатия : С потерями
Размер потока : 461 Мбайт (3%)
Заголовок : AC3 5.1 @ 448 kbps - DUB, Blu-ray EUR
Язык : Ukrainian
Default : Нет
Forced : Нет
Аудио #3
Идентификатор : 4
Формат : DTS
Формат/Информация : Digital Theater Systems
Профиль формата : ES Matrix / Core
Режим : 16
Параметр Endianness формата : Big
Идентификатор кодека : A_DTS
Продолжительность : 2 ч. 23 м.
Вид битрейта : Постоянный
Битрейт : 1509 Кбит/сек
Каналы : 7 каналов / 6 каналов
Расположение каналов : Front: L C R, Side: L R, Back: C, LFE / Front: L C R, Side: L R, LFE
Частота : 48,0 КГц
Частота кадров : 93,750 кадра/сек (512 spf)
Битовая глубина : 24 бит
Метод сжатия : С потерями
Задержка видео : 11 мс.
Размер потока : 1,52 Гбайт (9%)
Заголовок : DTS-ES 5.1 @ 1536 kbps
Язык : English
Default : Нет
Forced : Нет
Аудио #4
Идентификатор : 5
Формат : AC-3
Формат/Информация : Audio Coding 3
Расширение режима : CM (complete main)
Параметр Endianness формата : Big
Идентификатор кодека : A_AC3
Продолжительность : 2 ч. 23 м.
Вид битрейта : Постоянный
Битрейт : 224 Кбит/сек
Каналы : 2 канала
Расположение каналов : Front: L R
Частота : 48,0 КГц
Частота кадров : 31,250 кадров/сек (1536 spf)
Метод сжатия : С потерями
Размер потока : 231 Мбайт (1%)
Заголовок : AC3 2.0 @ 224 kbps - Audio Commentary by Bryan Singer and Simon Kinberg
Язык : English
Default : Нет
Forced : Нет
Текст #1
Идентификатор : 6
Формат : UTF-8
Идентификатор кодека : S_TEXT/UTF8
Идентификатор кодека/Информация : UTF-8 Plain Text
Заголовок : Forced, iTunes
Язык : Russian
Default : Да
Forced : Нет
Текст #2
Идентификатор : 7
Формат : UTF-8
Идентификатор кодека : S_TEXT/UTF8
Идентификатор кодека/Информация : UTF-8 Plain Text
Заголовок : iTunes
Язык : Russian
Default : Нет
Forced : Нет
Текст #3
Идентификатор : 8
Формат : UTF-8
Идентификатор кодека : S_TEXT/UTF8
Идентификатор кодека/Информация : UTF-8 Plain Text
Заголовок : Forced, iTunes
Язык : English
Default : Нет
Forced : Нет
Текст #4
Идентификатор : 9
Формат : UTF-8
Идентификатор кодека : S_TEXT/UTF8
Идентификатор кодека/Информация : UTF-8 Plain Text
Заголовок : iTunes
Язык : English
Default : Нет
Forced : Нет
Меню
00:00:00.000 : en:1
00:08:18.790 : en:2
00:14:13.186 : en:3
00:18:07.086 : en:4
00:24:55.492 : en:5
00:30:45.343 : en:6
00:36:35.235 : en:7
00:41:00.083 : en:8
00:45:56.503 : en:9
00:49:24.295 : en:10
00:55:22.610 : en:11
00:59:36.822 : en:12
01:04:43.670 : en:13
01:12:35.850 : en:14
01:17:32.898 : en:15
01:22:18.515 : en:16
01:27:45.594 : en:17
01:34:05.805 : en:18
01:36:46.634 : en:19
01:39:50.902 : en:20
01:43:34.375 : en:21
01:49:57.381 : en:22
01:55:08.359 : en:23
01:57:21.658 : en:24
02:03:50.546 : en:25
02:07:56.711 : en:26
02:10:59.100 : en:27
02:12:54.091 : en:28

Релиз от:


_________________
Проголосуй за трекер Открытый торрент трекер - RUS-MEDIA.ORG

Не забудьте оставить комментарий!



реклама партнёра


Вернуться к началу
 Профиль Отправить личное сообщение  
 
   Похожие торренты   Автор   Торрент   Размер 
В этой теме нет новых непрочитанных сообщений. Люди Икс: Апокалипсис / X-Men: Apocalypse [фантастика, боевик, приключения, 2016] BDRip, Dub [Лицензия]

salma3

24 | 6

2.18 ГБ

В этой теме нет новых непрочитанных сообщений. Люди Икс: Апокалипсис / X-Men: Apocalypse [фантастика, боевик, приключения, 2016] BDRip 1080p, Dub+Mvo

marya111

206 | 111

15.73 ГБ

В этой теме нет новых непрочитанных сообщений. Люди Икс: Апокалипсис / X-Men: Apocalypse [Фантастика, фэнтези, боевик, приключения, 2016] BDRemux 1080p, Dub [Лицензия]

salma3

1 | 2

30.02 ГБ

В этой теме нет новых непрочитанных сообщений. Люди Икс: Апокалипсис / X-Men: Apocalypse [Фантастика, фэнтези, боевик, приключения, 2016] BDRip, Dub [Лицензия]

salma3

40 | 3

1.47 ГБ

В этой теме нет новых непрочитанных сообщений. Люди Икс: Апокалипсис / X-Men: Apocalypse [Фантастика, боевик, приключения, 2016] BDRip 720p, Dub [Лицензия]

salma3

86 | 9

9.74 ГБ

В этой теме нет новых непрочитанных сообщений. Люди Икс: Апокалипсис / X-Men: Apocalypse [Фантастика, боевик, приключения, 2016] Blu-Ray, Dub [Лицензия]

salma3

41 | 6

44.92 ГБ

В этой теме нет новых непрочитанных сообщений. Люди Икс: Апокалипсис / X-Men: Apocalypse [Фантастика, фэнтези, боевик, приключения, 2016] BDRip, mvo

marya111

180 | 14

2.18 ГБ


Начать новую тему Ответить на тему  [ 1 сообщение ] 




Для Мосгорсуда, Роскомнадзора и рекламодателей:: mosgorsud-torrent[собачка]yandex.ru