Торрент файл
скачать торрент магнет ссылка Добавлен: 04 янв 2016, 17:01
Размер: 9.31 ГБ
Сидеров: 812
Личеров: 173
Автор

СообщениеДобавлено: 04 янв 2016, 17:01 

Не в сети
Зам. Админа
Аватара пользователя
Дата регистрации:
02 дек 2010, 12:39
Спасибо: 12581 / 214
Сообщения: 28049
Паранормальное явление 5: Призраки в 3D
Paranormal Activity: The Ghost Dimension
"Вы не можете спасти их.
Всё, что вы можете сделать - смотреть."

(Театральная версия / Theatrical Cut)



Год выпуска: 2015
Страна: США (Paramount Pictures, Blumhouse Productions)
Жанр: Ужасы
Продолжительность: 01:28:04

Перевод: Профессиональный дублированный - Line

Режиссер: Грегори Плоткин / Gregory Plotkin



исполняли (дублировали):




Ryan - Крис Дж. Мюррэй (Станислав Тикунов)
Emily - Бриттани Шоу (Варвара Чабан)
Leila - Айви Джордж (Василиса Журавлева)
Mike - Дэн Гилл (Александр Хошабаев)
Skyler - Оливия Тейлор Дадли (Светлана Молодцова)
Katie - Хлоя Ксенджери (Маша Емельянова)
Kristi - Джесика Браун (Анна Денисова)
Kent - Дон МакМанус (Вадим Медведев)
Father Todd - Майкл Кравич (Андрей Казанцев)
Grandma Lois - Халли Фут (Ирина Пономарева)
Hunter Rey - Эйден Лавкамп
Laura - Кара Пифко (Василиса Воронина)
Tobi - Марк Стегер



Описание: Молодые супруги Райан и Эмили, и их 6-летняя дочь Лейла переезжают в довольно симпатичный и тихий дом. В гараже они находят старую видеокамеру и коробку кассет. Но они даже не подозревали, что увидят, когда заглянут в объектив камеры…
Приготовьтесь к ужасающей развязке истории призрака, замучившего не одну семью!




Внимание: БОльшая часть фильма идёт в 2Д и только некоторые сцены (в основном тёмные) идут в 3Д! (Смотрите скрины 3Д-анимации внизу).
Возрастной рейтинг: Кроме детей до 16 лет! (И людей со слабой психикой).
Доп. инфо: Центр русской дороги получен редактированием дороги Line. Перевод полный.
Часть сэмпла идёт в 2Д, часть - в 3Д.
Театральная версия короче Расширенной примерно на 9 минут.

Деми Ловато могла исполнить роль в этом фильме.
Первоначально планировалось, что персонаж Кэти Фетерстон будет присутствовать только в первых трех фильмах серии, однако Орену Пели настолько понравился этот персонаж, что он попросил сценаристов включить ее и в остальные фильмы.
Фильм снят за 45 дней.
[*]По словам продюсера Орена Пели – это заключительный фильм серии.

Премьера: 20 октября 2015 (22 октября 2015)
Бюджет: $10 000 000
Кассовые сборы: $78 099 553







Качество: BDRip (by Ash61)
Контейнер: MKV
Формат 3D: Half OverUnder / Вертикальная анаморфная стереопара
Порядок ракурсов: левый ракурс первый



Видео: AVC / 23,976 fps / 1920х1080p / 13.5 Mbps

Аудио:
#1 - Русский / AC3 / 48 KHz / 5.1 ch / 640 Kbps (Дубляж - Line) (edit by Ash61)
#2 - Английский / AC3 / 48 KHz / 5.1 ch / 640 Kbps (Original - BD 3D)

Субтитры: Внешние (SRT UTF-8) English Full

General
Unique ID : 193532871041040274429706533234490033669 (0x9199133D6E69CE14A39A67CD999D4605)
Complete name : E:ParanormalActivity5(2015)3D-halfOU(Ash61)Line(5.1)ParanormalActivity5(2015)3D-halfOU(Ash61)Line(5.1).mkv
Format : Matroska
Format version : Version 2
File size : 9.31 GiB
Duration : 1h 28mn
Overall bit rate : 15.1 Mbps
Movie name : Паранормальное явление 5: Призраки в 3D / Paranormal Activity: The Ghost Dimension (2015) в 3Д
Encoded date : UTC 2016-01-04 09:27:29
Writing application : mkvmerge v5.8.0 ('No Sleep / Pillow') built on Sep 2 2012 15:37:04
Writing library : libebml v1.2.3 + libmatroska v1.3.0

Video
ID : 1
Format : AVC
Format/Info : Advanced Video Codec
Format profile : High@L4.1
Format settings, CABAC : Yes
Format settings, ReFrames : 4 frames
Codec ID : V_MPEG4/ISO/AVC
Duration : 1h 28mn
Bit rate : 13.5 Mbps
Width : 1 920 pixels
Height : 1 080 pixels
Display aspect ratio : 16:9
Frame rate mode : Constant
Frame rate : 23.976 fps
Color space : YUV
Chroma subsampling : 4:2:0
Bit depth : 8 bits
Scan type : Progressive
Bits/(Pixel*Frame) : 0.273
Stream size : 8.33 GiB (90%)
Title : BDRip by Ash61
Writing library : x264 core 146 r2538 121396c
Encoding settings : cabac=1 / ref=4 / deblock=1:-3:-3 / analyse=0x3:0x113 / me=umh / subme=10 / psy=1 / psy_rd=1.00:0.00 / mixed_ref=1 / me_range=32 / chroma_me=1 / trellis=2 / 8x8dct=1 / cqm=0 / deadzone=21,11 / fast_pskip=1 / chroma_qp_offset=-2 / threads=12 / lookahead_threads=3 / sliced_threads=0 / nr=0 / decimate=1 / interlaced=0 / bluray_compat=0 / constrained_intra=0 / bframes=10 / b_pyramid=2 / b_adapt=2 / b_bias=0 / direct=3 / weightb=1 / open_gop=0 / weightp=2 / keyint=250 / keyint_min=23 / scenecut=40 / intra_refresh=0 / rc_lookahead=60 / rc=crf / mbtree=1 / crf=16.5 / qcomp=0.70 / qpmin=0 / qpmax=69 / qpstep=4 / vbv_maxrate=40000 / vbv_bufsize=30000 / crf_max=0.0 / nal_hrd=none / filler=0 / frame-packing=4 / ip_ratio=1.40 / aq=1:0.70
Language : English
Default : Yes
Forced : No

Audio #1
ID : 2
Format : AC-3
Format/Info : Audio Coding 3
Mode extension : CM (complete main)
Format settings, Endianness : Big
Codec ID : A_AC3
Duration : 1h 28mn
Bit rate mode : Constant
Bit rate : 640 Kbps
Channel(s) : 6 channels
Channel positions : Front: L C R, Side: L R, LFE
Sampling rate : 48.0 KHz
Bit depth : 16 bits
Compression mode : Lossy
Stream size : 403 MiB (4%)
Title : Дубляж (редактирование и сведЕние в 5.1 - Ash61)
Language : Russian
Default : Yes
Forced : No

Audio #2
ID : 3
Format : AC-3
Format/Info : Audio Coding 3
Mode extension : CM (complete main)
Format settings, Endianness : Big
Codec ID : A_AC3
Duration : 1h 28mn
Bit rate mode : Constant
Bit rate : 640 Kbps
Channel(s) : 6 channels
Channel positions : Front: L C R, Side: L R, LFE
Sampling rate : 48.0 KHz
Bit depth : 16 bits
Compression mode : Lossy
Stream size : 403 MiB (4%)
Title : Original - BD 3D
Language : English
Default : No
Forced : No

Menu
00:00:00.000 : :1
00:01:56.074 : :2
00:09:23.313 : :3
00:17:33.177 : :4
00:24:11.492 : :5
00:29:08.288 : :6
00:36:40.990 : :7
00:42:59.452 : :8
00:49:04.441 : :9
00:56:20.669 : :10
01:04:23.610 : :11
01:11:25.323 : :12
01:22:39.121 : :13







реклама партнёра


Вернуться к началу
 Профиль  
 
   Похожие торренты   Автор   Торрент   Размер 
В этой теме нет новых непрочитанных сообщений. Паранормальное явление 5: Призраки в 3D / Paranormal Activity: The Ghost Dimension (Грегори Плоткин) [ужасы, 2015] BDRip 1080p, dub [iTunes]

Dracon

98 | 34

8.36 ГБ

В этой теме нет новых непрочитанных сообщений. Паранормальное явление 5: Призраки в 3D / Paranormal Activity: The Ghost Dimension (Грегори Плоткин) [ужасы, 2015] BDRip 720p, dub [iTunes]

Dracon

549 | 51

4.44 ГБ

В этой теме нет новых непрочитанных сообщений. Паранормальное явление 5: Призраки в 3D / Paranormal Activity: The Ghost Dimension [ужасы, 2015] BDRemux, Dub+Sub [2D | 3D-Video | Театральная версия | iTunes]

Dracon

66 | 47

28.88 ГБ

В этой теме нет новых непрочитанных сообщений. Паранормальное явление 5: Призраки в 3D / Paranormal Activity: The Ghost Dimension [ужасы, 2015] HDRip, dub [iTunes]

Dracon

313 | 8

1.37 ГБ

В этой теме нет новых непрочитанных сообщений. Хороший динозавр / The Good Dinosaur [Мультфильм, фэнтези, комедия, приключения, семейный, 2015] BDRip 1080p, dub [3D-Video | чистый звук]

Dracon

41 | 9

14.07 ГБ

В этой теме нет новых непрочитанных сообщений. Нина навсегда / Nina Forever [ужасы, мелодрама, комедия, 2015] BDRip 1080p, Dub [чистый звук]

salma3

214 | 68

8.24 ГБ

В этой теме нет новых непрочитанных сообщений. Инфекция: Фаза 2 / Contracted: Phase II (Джош Форбс) [Ужасы, триллер, драма, 2015] BDRip 1080p, dub [Чистый звук]

Dracon

35 | 3

6.66 ГБ


Начать новую тему Ответить на тему  [ 1 сообщение ] 




Для Мосгорсуда, Роскомнадзора и рекламодателей:: mosgorsud-torrent[собачка]yandex.ru