Торрент файл
скачать торрент магнет ссылка Добавлен: 19 фев 2017, 21:58
Размер: 3.16 ГБ
Сидеров: 489
Личеров: 61
Статус: (salma3)
Автор

СообщениеДобавлено: 03 дек 2016, 17:06 

Не в сети
Супермодератор
Аватара пользователя
Дата регистрации:
15 фев 2012, 16:44
Возраст: 27
Спасибо: 5707 / 2111
Сообщения: 24911
Год выпуска: 2016
Жанр: ужасы, боевик
Режиссер: Анна Ферстер

В ролях: Кейт Бекинсейл, Тео Джеймс, Лара Пулвер, Чарльз Дэнс, Тобайас Мензис, Брэдли Джеймс, Алисия Вела-Бэйли, Трент Гарретт, Дэйзи Хэд, Джеймс Фолкнер

Описание: Воительница-вампир Селена вступает в свой последний и решающий бой между оборотнями и кланом вампиров, который предал ее.



Страна: США
Продолжительность: 01:21:50
Перевод:Профессиональный (полное дублирование)[чистый звук]

Формат:WEB-DL 720p
Видео: 1280x532p (2.40:1), 23.976 fps, AVC MPEG-4 (H.264), High@L4.1 ~4498 kbps, 0.273 bit/pixel
Аудио: Русский: 48 kHz, AC3 Dolby Digital, 2 ch, ~384 kbps

Имеется Реклама!


Формат : Matroska
Версия формата : Version 2
Размер файла : 3,16 Гбайт
Продолжительность : 1 ч. 32 м.
Общий поток : 4882 Кбит/сек
Дата кодирования : UTC 2017-02-19 07:56:34
Программа кодирования : mkvmerge v7.8.0 ('River Man') 32bit built on Apr 3 2015 12:11:22
Библиотека кодирования : libebml v1.3.1 + libmatroska v1.4.2

Видео
Идентификатор : 1
Формат : AVC
Формат/Информация : Advanced Video Codec
Профиль формата : High@L4
Параметр CABAC формата : Да
Параметр ReFrames формата : 5 кадров
Идентификатор кодека : V_MPEG4/ISO/AVC
Продолжительность : 1 ч. 32 м.
Битрейт : 4498 Кбит/сек
Ширина : 1280 пикселей
Высота : 532 пикселей
Соотношение сторон : 2,40:1
Режим частоты кадров : Постоянный
Частота кадров : 23,976 (24000/1001) кадра/сек
Цветовое пространство : YUV
Субдискретизация насыщенности : 4:2:0
Битовая глубина : 8 бит
Тип развёртки : Прогрессивная
Бит/(Пиксели*Кадры) : 0.273
Размер потока : 2,91 Гбайт (92%)
Язык : English
Default : Да
Forced : Нет
Цветовой диапазон : Limited
Основные цвета : BT.709
Характеристики трансфера : BT.709
Коэффициенты матрицы : BT.709

Аудио
Идентификатор : 2
Формат : AC-3
Формат/Информация : Audio Coding 3
Расширение режима : CM (complete main)
Параметр Endianness формата : Big
Идентификатор кодека : A_AC3
Продолжительность : 1 ч. 32 м.
Вид битрейта : Постоянный
Битрейт : 384 Кбит/сек
Каналы : 2 канала
Расположение каналов : Front: L R
Частота : 48,0 КГц
Частота кадров : 31,250 кадров/сек (1536 spf)
Метод сжатия : С потерями
Размер потока : 256 Мбайт (8%)
Язык : Russian
Default : Да
Forced : Нет

Меню
00:00:00.000 : en:1
00:04:29.477 : en:2
00:09:25.022 : en:3
00:13:59.004 : en:4
00:18:55.008 : en:5
00:24:26.089 : en:6
00:31:14.956 : en:7
00:36:25.850 : en:8
00:42:16.033 : en:9
00:47:36.645 : en:10
00:52:21.304 : en:11
00:58:58.326 : en:12
01:04:30.991 : en:13
01:08:51.126 : en:14
01:13:46.129 : en:15
01:20:07.718 : en:16
Показать скриншоты


_________________
Проголосуй за трекер Открытый торрент трекер - RUS-MEDIA.ORG




реклама партнёра


Вернуться к началу
 Профиль Отправить личное сообщение  
 
   Похожие торренты   Автор   Торрент   Размер 
В этой теме нет новых непрочитанных сообщений. Другой мир: Войны крови / Underworld: Blood Wars [Ужасы, боевик, 2016] HDRip, Dub [чистый звук]

salma3

748 | 76

1.37 ГБ

В этой теме нет новых непрочитанных сообщений. Другой мир: Войны крови / Underworld: Blood Wars (Ужасы, боевик, 2016) WEB-DLRip-AVC | Звук с TS

marya111

1961 | 157

1.46 ГБ

В этой теме нет новых непрочитанных сообщений. Другой мир: Войны крови / Underworld: Blood Wars [Ужасы, боевик, 2016] WEB-DL 720p, Mvo

salma3

1049 | 391

3.11 ГБ

В этой теме нет новых непрочитанных сообщений. Другой мир: Войны крови / Underworld: Blood Wars [Ужасы, боевик, 2016] BDRip 720p, Dub+Sub [iTunes]

salma3

981 | 283

4.48 ГБ

В этой теме нет новых непрочитанных сообщений. Другой мир: Войны крови / Underworld: Blood Wars [Ужасы, боевик, 2016] WEB-DL 1080p, Mvo

salma3

4693 | 2619

3.42 ГБ

В этой теме нет новых непрочитанных сообщений. Другой мир: Войны крови / Underworld: Blood Wars [ужасы, боевик, 2016] BDRip, Avo

salma3

45 | 13

1.46 ГБ

В этой теме нет новых непрочитанных сообщений. Другой мир: Войны крови / Underworld: Blood Wars [ужасы, боевик, 2016] BDRip, Mvo

salma3

63 | 38

1.47 ГБ


СообщениеДобавлено: 09 фев 2017, 12:16 

Не в сети
Супермодератор
Аватара пользователя
Дата регистрации:
15 фев 2012, 16:44
Возраст: 27
Спасибо: 5707 / 2111
Сообщения: 24911
salma3 писал(а):
Re: Другой мир: Войны крови / Underworld: Blood Wars [ужасы, боевик, 2016] WEB-DLRip, Dub [Звук с TS]

_________________
Проголосуй за трекер Открытый торрент трекер - RUS-MEDIA.ORG



Вернуться к началу
 Профиль Отправить личное сообщение  
 

СообщениеДобавлено: 19 фев 2017, 21:58 

Не в сети
Супермодератор
Аватара пользователя
Дата регистрации:
15 фев 2012, 16:44
Возраст: 27
Спасибо: 5707 / 2111
Сообщения: 24911
salma3 писал(а):
Re: Другой мир: Войны крови / Underworld: Blood Wars [ужасы, боевик, 2016] WEB-DL 720p, Dub [чистый звук]

_________________
Проголосуй за трекер Открытый торрент трекер - RUS-MEDIA.ORG



Вернуться к началу
 Профиль Отправить личное сообщение  
 
Начать новую тему Ответить на тему  [ Сообщений: 3 ] 




Для Мосгорсуда, Роскомнадзора и рекламодателей:: mosgorsud-torrent[собачка]yandex.ru