Торрент файл
скачать торрент магнет ссылка Добавлен: 23 май 2015, 15:38
Размер: 1.46 ГБ
Сидеров: 7
Личеров: 1
Автор

СообщениеДобавлено: 23 май 2015, 15:38 

Не в сети
Зам. Админа
Аватара пользователя
Дата регистрации:
02 дек 2010, 12:39
Спасибо: 12460 / 214
Сообщения: 27968
Год выхода: 2015
Жанр: фантастика, боевик, триллер, приключения
Режиссер: Джордж Миллер
В ролях: Том Харди, Шарлиз Терон, Николас Холт, Хью Кияс-Бёрн, Джош Хелман, Нэйтан Джонс, Зои Кравиц, Роузи Хантингтон-Уайтли, Райли Кио, Эбби Ли

О фильме:
Вскоре после отмщения за смерть жены и сына, Макс Рокатански покинул ряды «Основного силового патруля» и уехал в глушь, где скитается в одиночестве, пока мир медленно падает впоследствии нефтяного кризиса и глобальной войны. Не имея ничего, кроме своей машины «Перехватчик», Максу предстоит научиться, как выжить в пост-апокалиптической пустоши и сражаться с жестокими, безжалостными воинами, которые населяют её.
Сравнение с CAMRip*Proper*
Качество: TS
Видео: XviD, 1628 kb/s, 720x384, 30 fps
Аудио: AC3, 192 kb/s (2 ch), 48 KHz
Продолжительность: 01:53:59
Перевод: Дублированный [Звук с CAMRip]

Сэмпл

Формат                                   : AVI
Формат/Информация                        : Audio Video Interleave
Размер файла                             : 1,46 Гбайт
Продолжительность                        : 1 ч. 53 м.
Общий поток                              : 1832 Кбит/сек
Название фильма                          : Mad.Max.2015.D.HDTS.ELEKTRI4KA.uniongang.tv
Программа кодирования                    : VirtualDubMod 1.5.10.3 | http://www.virtualdub-fr.org || (build 2550/release)
Авторское право                          : UNIONGANG&RUSTORRENTS

Видео
Идентификатор                            : 0
Формат                                   : MPEG-4 Visual
Профиль формата                          : Advanced Simple@L5
Параметр BVOP формата                    : 2
Параметр QPel формата                    : Нет
Параметр GMC формата                     : Без точки перехода
Параметр матрицы формата                 : Default (MPEG)
Режим смешивания                         : Сжатый битовый поток
Идентификатор кодека                     : XVID
Идентификатор кодека/Подсказка           : XviD
Продолжительность                        : 1 ч. 53 м.
Битрейт                                  : 1628 Кбит/сек
Ширина                                   : 720 пикселей
Высота                                   : 384 пикселя
Соотношение сторон                       : 1,85:1
Частота кадров                           : 30,000 кадров/сек
Цветовое пространство                    : YUV
Субдискретизация насыщенности            : 4:2:0
Битовая глубина                          : 8 бит
Тип развёртки                            : Прогрессивная
Метод сжатия                             : С потерями
Бит/(Пиксели*Кадры)                      : 0.196
Размер потока                            : 1,30 Гбайт (89%)
Библиотека кодирования                   : XviD 73

Аудио
Идентификатор                            : 1
Формат                                   : AC-3
Формат/Информация                        : Audio Coding 3
Расширение режима                        : CM (complete main)
Параметр Endianness формата              : Big
Идентификатор кодека                     : 2000
Продолжительность                        : 1 ч. 53 м.
Вид битрейта                             : Постоянный
Битрейт                                  : 192 Кбит/сек
Каналы                                   : 2 канала
Расположение каналов                     : Front: L R
Частота                                  : 48,0 КГц
Битовая глубина                          : 16 бит
Метод сжатия                             : С потерями
Размер потока                            : 157 Мбайт (10%)
Выравнивание                             : Разделение по промежуткам
Продолжительность промежутка             : 33  мс. (1,00 видеокадр)
Время предзагрузки промежутка            : 500  мс.








реклама партнёра


Вернуться к началу
 Профиль  
 
   Похожие торренты   Автор   Торрент   Размер 
В этой теме нет новых непрочитанных сообщений. Безумный Макс: Дорога ярости / Mad Max: Fury Road (Джордж Миллер) [фантастика, боевик, триллер, приключения, 2015] WEB-DL 1080p, dub [Звук с TS]

Dracon

290 | 4

3.95 ГБ

В этой теме нет новых непрочитанных сообщений. Безумный Макс: Дорога ярости / Mad Max: Fury Road (Джордж Миллер) [фантастика, боевик, триллер, приключения, 2015] WEB-DLRip, dub [Звук с TS]

Dracon

9 | 0

1.46 ГБ

В этой теме нет новых непрочитанных сообщений. Безумный Макс: Дорога ярости / Mad Max: Fury Road (Джордж Миллер) [фантастика, боевик, триллер, приключения, 2015] WEB-DL 720p, dub [Чистый звук]

Dracon

1508 | 14

3.91 ГБ

В этой теме нет новых непрочитанных сообщений. Безумный Макс: Дорога ярости / Mad Max: Fury Road (Джордж Миллер) [фантастика, боевик, триллер, приключения, 2015] WEB-DLRip, dub [Чистый звук]

Dracon

748 | 19

2.05 ГБ

В этой теме нет новых непрочитанных сообщений. Безумный Макс: Дорога ярости / Mad Max: Fury Road (Джордж Миллер) [фантастика, боевик, триллер, приключения, 2015] WEB-DLRip, dub [Чистый звук]

Dracon

1089 | 27

1.37 ГБ

В этой теме нет новых непрочитанных сообщений. Безумный Макс: Дорога ярости / Mad Max: Fury Road (Джордж Миллер) [фантастика, боевик, триллер, приключения, 2015] WEB-DL 1080p [Чистый звук]

Dracon

19 | 1

4.28 ГБ

В этой теме нет новых непрочитанных сообщений. Безумный Макс: Дорога ярости / Mad Max: Fury Road (Джордж Миллер) [фантастика, боевик, триллер, приключения, 2015] DVD5, Dub+Sub

Dracon

187 | 25

4.37 ГБ


Начать новую тему Ответить на тему  [ 1 сообщение ] 




Для Мосгорсуда, Роскомнадзора и рекламодателей:: mosgorsud-torrent[собачка]yandex.ru