Торрент файл
скачать торрент магнет ссылка Добавлен: 01 фев 2015, 21:14
Размер: 1.46 ГБ
Сидеров: 121
Личеров: 4
Автор

СообщениеДобавлено: 01 фев 2015, 21:14 

Не в сети
Зам. Админа
Аватара пользователя
Дата регистрации:
02 дек 2010, 12:39
Спасибо: 12460 / 214
Сообщения: 27968
Год выпуска: 2014
Жанр: Триллер, приключения
Выпущено: Великобритания, США, Россия, Focus Features, Film4, Cowboy Films
Режиссер: Кевин МакДональд
В ролях: Джуд Лоу, Константин Хабенский, Скут МакНэйри, Бен Мендельсон, Джоди Уиттакер, Тобайас Мензис, Григорий Добрыгин, Паулина Бонева, Джун Смит, Дэвид Трелфолл, Майкл Смайли

О фильме: К уволенному капитану подводной лодки обращается таинственный наниматель с предложением возглавить экспедицию по поиску затонувшей у берегов Чёрного моря субмарины, предположительно загруженной золотом. Желая подзаработать на этом деле и отомстить бывшему работодателю, капитан собирает команду из русских и английских моряков и отправляется в плавание, но вскоре понимает, в какое рискованное предприятие ввязался.


Качество: CAMRip
Видео: XviD, 1671 Кбит/с, 720x272
Аудио: АС3, 2 ch, 256 Кбит/с
Размер: 1.46 ГБ
Продолжительность: 01:47:34
Перевод: Профессиональный многоголосый

General
Complete name : Chernoe.more.2014.D.CAMRip.avi
Format : AVI
Format/Info : Audio Video Interleave
File size : 1.46 GiB
Duration : 1h 47mn
Overall bit rate : 1 939 Kbps
Movie name : Chernoe.more.2014.Dt.CAMRip.uniongang.tv
Director : 3imeMachi9e&Niko&KINOPark
Writing application : VirtualDubModRus 1.5.10.2 (build 2542/release)
Copyright : UNIONGANG.TV
Comment : ELEKTRI4KA

Video
ID : 0
Format : MPEG-4 Visual
Format profile : Advanced Simple@L5
Format settings, BVOP : 3
Format settings, QPel : No
Format settings, GMC : No warppoints
Format settings, Matrix : Custom
Codec ID : XVID
Codec ID/Hint : XviD
Duration : 1h 47mn
Bit rate : 1 671 Kbps
Width : 720 pixels
Height : 272 pixels
Display aspect ratio : 2.647
Frame rate : 29.970 fps
Color space : YUV
Chroma subsampling : 4:2:0
Bit depth : 8 bits
Scan type : Progressive
Compression mode : Lossy
Bits/(Pixel*Frame) : 0.285
Stream size : 1.26 GiB (86%)
Writing library : XviD 1.2.1 (UTC 2008-12-04)

Audio
ID : 1
Format : AC-3
Format/Info : Audio Coding 3
Mode extension : CM (complete main)
Format settings, Endianness : Big
Codec ID : 2000
Duration : 1h 47mn
Bit rate mode : Constant
Bit rate : 256 Kbps
Channel(s) : 2 channels
Channel positions : Front: L R
Sampling rate : 48.0 KHz
Bit depth : 16 bits
Compression mode : Lossy
Stream size : 197 MiB (13%)
Alignment : Split accross interleaves
Interleave, duration : 33 ms (1.00 video frame)
Interleave, preload duration : 500 ms




реклама партнёра


Вернуться к началу
 Профиль  
 
   Похожие торренты   Автор   Торрент   Размер 
В этой теме нет новых непрочитанных сообщений. Чёрное море /  Black Sea (Кевин МакДональд) [Триллер, приключения, 2014] HDRip, Mvo [Лицензия]

Dracon

520 | 22

1.46 ГБ

В этой теме нет новых непрочитанных сообщений. Чёрное море / Black Sea (Кевин МакДональд) [Триллер, приключения, 2014] HDRip, Mvo [Лицензия]

Dracon

12 | 3

2.06 ГБ

В этой теме нет новых непрочитанных сообщений. Чёрное море / Black Sea (Кевин МакДональд) [Триллер, приключения, 2014] BDRip 1080p, Mvo [Лицензия]

Dracon

20 | 4

8.71 ГБ

В этой теме нет новых непрочитанных сообщений. Чёрное море / Black Sea (Кевин МакДональд) [Триллер, приключения, 2014] BDRip 720p, Mvo [Лицензия]

Dracon

129 | 4

5.6 ГБ

В этой теме нет новых непрочитанных сообщений. Как я живу теперь / How I Live Now (Кевин Макдональд / Kevin Macdonald) [2013г., фэнтези, драма, приключения, WEB-DLRip-AVC] AVO

Alfredovich

210 | 2

4.01 ГБ

В этой теме нет новых непрочитанных сообщений. [Black] A Touch Of Ebony / Черное Прикосновение (Vito Van Gogh / Combat Zone) (Skin Diamond, Chanell Heart, Tori Taylor, Adriana Malao, Rico Strong...) [2014 г., Straight, Black, WEB-DL 1080p]

friizze

9 | 10

2.38 ГБ

В этой теме нет новых непрочитанных сообщений. Чёрное море / Чёрная сказка / Mar Negro [Ужасы, 2013] HDRip, avo

Dracon

159 | 7

1.38 ГБ


Начать новую тему Ответить на тему  [ 1 сообщение ] 




Для Мосгорсуда, Роскомнадзора и рекламодателей:: mosgorsud-torrent[собачка]yandex.ru