Торрент файл
скачать торрент магнет ссылка Добавлен: 24 дек 2013, 16:12
Размер: 2.78 ГБ
Сидеров: 1110
Личеров: 65
Статус: (salma3)
Автор

СообщениеДобавлено: 24 дек 2013, 16:12 

Не в сети
Аватара пользователя
Дата регистрации:
23 дек 2013, 11:18
Спасибо: 81 / 2
Сообщения: 141
Год выхода: 2013
Жанр: триллер, драма, криминал
Режиссер: Скотт Купер
В ролях: Кристиан Бэйл, Вуди Харрельсон, Кейси Аффлек, Форест Уитакер, Уиллем Дефо, Зои Салдана, Сэм Шепард, Дендри Тейлор, Карл Киарфалио, Нэнси Моссер

О фильме: Действие фильма разворачивается в 2008 году в штате Индиана. В центре сюжета — история осужденного за убийство человека, который, выйдя из тюрьмы на свободу после четырех лет, проведенных за решеткой, пытается адаптироваться к новой жизни и, наконец-то, исполнить давно данное им обещание жениться на любимой девушке. Однако, в конце концов, он все-таки решает отложить эти радужные планы и сначала отомстить за убийство своего младшего брата.



Выпущено: США, Великобритания / Appian Way, Energy Entertainment, Red Granite Pictures
Продолжительность: 01:56:08
Озвучивание: Любительское (двухголосое) [Студия "Paradox"]

Формат: MKV
Качество: DVDScr 720p
Видео: 2719 kb/s, 1280x542
Аудио: Russian: AC3, 192 kb/s (2 ch) / English: AC3, 448 kb/s (6 ch)

Format : Matroska
Format version : Version 4 / Version 2
File size : 2.78 GiB
Duration : 1h 56mn
Overall bit rate mode : Variable
Overall bit rate : 3 428 Kbps
Encoded date : UTC 2013-12-24 12:02:28
Writing application : mkvmerge v6.1.0 ('Old Devil') built on Mar 4 2013 09:10:42
Writing library : libebml v1.3.0 + libmatroska v1.4.0

Video
ID : 1
Format : AVC
Format/Info : Advanced Video Codec
Format profile : High@L4.1
Format settings, CABAC : Yes
Format settings, ReFrames : 3 frames
Codec ID : V_MPEG4/ISO/AVC
Duration : 1h 56mn
Bit rate mode : Variable
Bit rate : 2 720 Kbps
Maximum bit rate : 40.0 Mbps
Width : 1 280 pixels
Height : 542 pixels
Display aspect ratio : 2.35:1
Frame rate : 23.976 fps
Color space : YUV
Chroma subsampling : 4:2:0
Bit depth : 8 bits
Scan type : Progressive
Bits/(Pixel*Frame) : 0.164
Stream size : 2.21 GiB (79%)
Writing library : x264 core 140 r2377 1ca7bb9
Encoding settings : cabac=1 / ref=4 / deblock=1:-1:-1 / analyse=0x3:0x113 / me=umh / subme=9 / psy=1 / psy_rd=1.00:0.15 / mixed_ref=1 / me_range=18 / chroma_me=1 / trellis=2 / 8x8dct=1 / cqm=0 / deadzone=21,11 / fast_pskip=0 / chroma_qp_offset=-3 / threads=6 / lookahead_threads=1 / sliced_threads=0 / slices=4 / nr=0 / decimate=1 / interlaced=0 / bluray_compat=0 / constrained_intra=0 / bframes=3 / b_pyramid=1 / b_adapt=2 / b_bias=0 / direct=1 / weightb=1 / open_gop=0 / weightp=0 / keyint=23 / keyint_min=1 / scenecut=40 / intra_refresh=0 / rc_lookahead=23 / rc=crf / mbtree=1 / crf=19.0 / qcomp=0.60 / qpmin=10 / qpmax=51 / qpstep=4 / vbv_maxrate=40000 / vbv_bufsize=30000 / crf_max=0.0 / nal_hrd=vbr / filler=0 / ip_ratio=1.40 / aq=1:1.00
Language : English
Default : Yes
Forced : No
Color primaries : BT.709-5, BT.1361, IEC 61966-2-4, SMPTE RP177
Transfer characteristics : BT.709-5, BT.1361
Matrix coefficients : BT.709-5, BT.1361, IEC 61966-2-4 709, SMPTE RP177

Audio #1
ID : 2
Format : AC-3
Format/Info : Audio Coding 3
Mode extension : CM (complete main)
Format settings, Endianness : Big
Codec ID : A_AC3
Duration : 1h 56mn
Bit rate mode : Constant
Bit rate : 192 Kbps
Channel(s) : 2 channels
Channel positions : Front: L R
Sampling rate : 48.0 KHz
Bit depth : 16 bits
Compression mode : Lossy
Stream size : 159 MiB (6%)
Language : Russian
Default : No
Forced : No

Audio #2
ID : 3
Format : AC-3
Format/Info : Audio Coding 3
Mode extension : CM (complete main)
Format settings, Endianness : Big
Codec ID : A_AC3
Duration : 1h 56mn
Bit rate mode : Constant
Bit rate : 448 Kbps
Channel(s) : 6 channels
Channel positions : Front: L C R, Side: L R, LFE
Sampling rate : 48.0 KHz
Bit depth : 16 bits
Compression mode : Lossy
Stream size : 372 MiB (13%)
Language : English
Default : No
Forced : No




реклама партнёра


Вернуться к началу
 Профиль Отправить личное сообщение  
 
   Похожие торренты   Автор   Торрент   Размер 
В этой теме нет новых непрочитанных сообщений. Из пекла / Out of the Furnace [триллер, драма, криминал, 2013] DVDScr, dvo

Ανδρέας

584 | 31

1.45 ГБ

В этой теме нет новых непрочитанных сообщений. Из пекла / Out of the Furnace [триллер, драма, криминал, 2013] HDRip, dvo

Dracon

173 | 6

1.37 ГБ

В этой теме нет новых непрочитанных сообщений. Из пекла / Out of the Furnace [триллер, драма, криминал, 2013] BDRip 1080p, dvo

Dracon

105 | 4

8.48 ГБ

В этой теме нет новых непрочитанных сообщений. Игрок / The Gambler (Руперт Уайатт) [Триллер, Драма, Криминал, 2014] DVDScr, dvo

Dracon

53 | 3

1.37 ГБ

В этой теме нет новых непрочитанных сообщений. Игрок / The Gambler (Руперт Уайатт) [Триллер, Драма, Криминал, 2014] DVDScr, dvo

Dracon

56 | 5

2.04 ГБ

В этой теме нет новых непрочитанных сообщений. Уцелевший / Lone Survivor [боевик, триллер, драма, военный, 2013] DVDScr, dvo

Dracon

3309 | 122

1.37 ГБ

В этой теме нет новых непрочитанных сообщений. Игрок / The Gambler (Руперт Уайатт) [Триллер, Драма, Криминал, 2014] DVDScr, dub [звук с TS]

Dracon

14 | 2

1.37 ГБ


Начать новую тему Ответить на тему  [ 1 сообщение ] 




Для Мосгорсуда, Роскомнадзора и рекламодателей:: mosgorsud-torrent[собачка]yandex.ru