Торрент файл
скачать торрент магнет ссылка Добавлен: 29 янв 2012, 10:26
Размер: 1.6 ГБ
Сидеров: 11
Личеров: 4
Статус: (Dracon)
Автор

СообщениеДобавлено: 29 янв 2012, 10:26 

Не в сети
Зам. Админа
Аватара пользователя
Дата регистрации:
02 дек 2010, 12:39
Спасибо: 12461 / 214
Сообщения: 27968

Год выхода: 2011
Страна: США
Жанр:драма, комедия
Продолжительность: 01:55:35
Перевод: Профессиональный (полное дублирование) [Звук с TS] + Оригинальная дорожка (английский) отдельно
Субтитры: нет

Режиссер: Александр Пэйн / Alexander Payne

В ролях: Джордж Клуни, Шэйлин Вудли, Амара Миллер, Ник Краузе, Патти Хасти, Грэйс А. Круз, Ким Дженнаула, Карен Куиока Хиронага, Кармен Кауи, Харт Хеммингз и др.

О фильме: Гавайский юрист Мэтт Кинг пытается после смерти жены восстановить отношения со своими двумя дочерьми.


Оскар, 2012 год
Лучший фильм
Лучшая мужская роль
(Джордж Клуни)
Лучший режиссер (Александр Пэйн)
Лучший адаптированный сценарий
Лучший монтаж


Золотой глобус, 2012 год
Лучший фильм (драма)
Лучшая мужская роль (драма)
(Джордж Клуни)
Лучшая женская роль второго плана (Шэйлин Вудли)
Лучший режиссер (Александр Пэйн)
Лучший сценарий

Британская академия, 2012 год
Лучший фильм
Лучшая мужская роль
(Джордж Клуни)
Лучший адаптированный сценарий

Знаете ли вы, что...
*Фильм основан на одноимённой дебютной книге гавайской писательницы Кауи Харт Хеммингз, которая впервые была опубликована в мае 2007 года.
*Использованный при съёмках фильма дом семейства Кинг имел один большой недостаток – возле него не было описываемого в книге дерева баньяна. Эту проблему решили с помощью транспортировки и пересадки выкопанного с землей взрослого дерева.
*Автор книги Кауи Харт Хеммингз появляется в камео в качестве секретаря героя Джорджа Клуни.
*На роль младшей дочери десятилетней Скотти пробовалось свыше трехсот девочек.
*На роль старшей дочери пробовалась Аманда Сэйфрид.
*В книге младшая дочь Скотти в один из моментов появлялась в футболке с надписью миссис Клуни. Так получилось, что в фильме Джордж Клуни играет её отца.



Качество: WEBSCR [The.Descendants.2011.WEBSCR.XviD-TiMPE]
Формат: AVI
Видео: 720x304 (2.37:1), 23.976 fps, XviD MPEG-4 ~1648 kbps avg, 0.31 bit/pixel
Аудио #1: 48 kHz, AC3 Dolby Digital, 2/0 (L,R) ch, ~160.00 kbps avg rus
Аудио #2: 48 kHz, AC3 Dolby Digital, 2/0 (L,R) ch, ~160.00 kbps avg eng отдельно





Общее
Полное имя: Potomki.2011.WEBSCR.rus.DUB.avi
Формат: AVI
Формат/Информация: Audio Video Interleave
Размер файла: 1,47 Гбайт
Продолжительность: 1 ч. 55 м.
Общий поток: 1817 Кбит/сек
Название фильма: The Descendants
Режиссёр: Alexander Payne
Жанр: Drama
Программа кодирования: VirtualDubMod 1.5.10.2 (build 2540/release)
Формат оригинала/Имя: Movie

Видео
Идентификатор: 0
Формат: MPEG-4 Visual
Профиль формата: Advanced Simple@L5
Параметр BVOP формата: 2
Параметр QPel формата: Нет
Параметр GMC формата: Без точки перехода
Параметр матрицы формата: Выборочная
Режим смешивания: Сжатый битовый поток
Идентификатор кодека: XVID
Идентификатор кодека/Подсказка: XviD
Продолжительность: 1 ч. 55 м.
Битрейт: 1649 Кбит/сек
Ширина: 720 пикселей
Высота: 304 пикселя
Соотношение сторон: 2,35:1
Частота кадров: 23,976 кадра/сек
Цветовое пространство: YUV
Субдискретизация насыщенности: 4:2:0
Битовая глубина: 8 бит
Тип развёртки: Прогрессивная
Метод сжатия: С потерями
Бит/(Пиксели*Кадры): 0.314
Размер потока: 1,33 Гбайт (91%)
Библиотека кодирования: XviD 1.2.1 (UTC 2008-12-04)

Аудио
Идентификатор: 1
Формат: AC-3
Формат/Информация: Audio Coding 3
Расширение режима: CM (complete main)
Идентификатор кодека: 2000
Продолжительность: 1 ч. 54 м.
Вид битрейта: Постоянный
Битрейт: 160 Кбит/сек
Каналы: 2 канала
Расположение каналов: Front: L R
Частота: 48,0 КГц
Битовая глубина: 16 бит
Метод сжатия: С потерями
Размер потока: 132 Мбайт (9%)
Выравнивание: Разделение по промежуткам
Продолжительность промежутка: 42мс. (1,01 видеокадр)
Время предзагрузки промежутка: 500мс.




реклама партнёра


Вернуться к началу
 Профиль  
 
   Похожие торренты   Автор   Торрент   Размер 
В этой теме нет новых непрочитанных сообщений. Fit for a King - Descendants [2011, Christian Metalcore, Post-Hardcore, MP3]

PriZraK

0 | 1

87.03 МБ

В этой теме нет новых непрочитанных сообщений. Наследники / Descendants (Кенни Ортега) [фэнтези, боевик, комедия, приключения, 2015] WEB-DL 1080p, mvo

Dracon

137 | 16

4.02 ГБ

В этой теме нет новых непрочитанных сообщений. Наследники / Descendants (Кенни Ортега) [фэнтези, боевик, комедия, приключения, 2015] WEB-DLRip, mvo

Dracon

3922 | 117

1.46 ГБ

В этой теме нет новых непрочитанных сообщений. Starперцы / Last Vegas [Комедия, драма, 2013] HDRip, dub [чистый звук]

Dracon

0 | 2

1.46 ГБ

В этой теме нет новых непрочитанных сообщений. Двойник / The Double [триллер, драма, комедия, 2013] HDTVRip, dub [Звук с TS]

Dracon

1240 | 32

1.36 ГБ

В этой теме нет новых непрочитанных сообщений. Дружба и никакого секса? / What If [драма, мелодрама, комедия, 2013] HDTVRip, dub [Звук с TS]

Dracon

1351 | 20

1.37 ГБ

В этой теме нет новых непрочитанных сообщений. Вторая жизнь Уве / En man som heter Ove [драма, комедия, 2015] HDRip, Dub [чистый звук]

salma3

2393 | 140

1.37 ГБ


СообщениеДобавлено: 29 янв 2012, 20:37 

Не в сети
Зам. Админа
Аватара пользователя
Дата регистрации:
02 дек 2010, 12:39
Спасибо: 12461 / 214
Сообщения: 27968
фильм норма...качество норма...звук на троечку...


Вернуться к началу
 Профиль  
 
Начать новую тему Ответить на тему  [ Сообщений: 2 ] 




Для Мосгорсуда, Роскомнадзора и рекламодателей:: mosgorsud-torrent[собачка]yandex.ru