Торрент файл
скачать торрент магнет ссылка Добавлен: 13 янв 2012, 20:53
Размер: 1.5 ГБ
Сидеров: 12
Личеров: 5
Статус: (drink)
Автор

СообщениеДобавлено: 13 янв 2012, 20:53 

Не в сети
Супермодератор
Аватара пользователя
Дата регистрации:
11 апр 2010, 18:10
Спасибо: 5960 / 7
Сообщения: 56765
«Все становятся старше. Но не все взрослеют.»



Год выхода: 2011
Жанр: драма, комедия
Выпущено: США
Продолжительность: 01:28:43
Перевод: Любительский (одноголосый) + Оригинальная дорожка (английский)

Режиссер: Джейсон Райтман

В ролях: Шарлиз Терон, Пэттон Освальт, Патрик Уилсон, Элизабет Ризер, Коллетт Вульф, Джилл Айкенберри, Ричард Бекинс, Мэри Бет Херт, Кейт Ноулин, Вирджиния ДаРе Полин и др.

Описание: Трагикомедия про писательницу, подрабатывающую литературным негром и выдающую тинейджерские романы, отправившуюся в родной город на поиски бывшего бойфренда, который успел обзавестись семьей и ребенком.



Золотой глобус, 2012 год
Лучшая женская роль (комедия или мюзикл) (Шарлиз Терон)

Качество: CAMRip PROPER сравнение с CAMRip
Формат: AVI
Видео: 608x304 (2.00:1), 23.976 fps, XviD build 64 ~2154 kbps avg, 0.49 bit/pixel
Аудио #1: 48 kHz, MPEG Layer 3, 2 ch, ~128.00 kbps avg Rus
Аудио #2: 44.100 kHz, MPEG Layer 3, 2 ch, ~128.00 kbps avg Eng





Общее
Полное имя: Bednaya.bogataya.devochka.2011.CAMRip.PROPER.rus.VO.eng.avi
Формат: AVI
Формат/Информация: Audio Video Interleave
Размер файла: 1,50 Гбайт
Продолжительность: 1 ч. 28 м.
Общий поток: 2425 Кбит/сек
Название фильма: Young Adult
Режиссёр: Jason Reitman
Жанр: Drama
Программа кодирования: VirtualDubMod 1.5.10.2 (build 2540/release)
Формат оригинала/Имя: Movie

Видео
Идентификатор: 0
Формат: MPEG-4 Visual
Профиль формата: Advanced Simple@L5
Параметр BVOP формата: 1
Параметр QPel формата: Нет
Параметр GMC формата: Без точки перехода
Параметр матрицы формата: Выборочная
Идентификатор кодека: XVID
Идентификатор кодека/Подсказка: XviD
Продолжительность: 1 ч. 28 м.
Битрейт: 2155 Кбит/сек
Ширина: 608 пикселей
Высота: 304 пикселя
Соотношение сторон: 2,000
Частота кадров: 23,976 кадра/сек
Цветовое пространство: YUV
Субдискретизация насыщенности: 4:2:0
Битовая глубина: 8 бит
Тип развёртки: Прогрессивная
Метод сжатия: С потерями
Бит/(Пиксели*Кадры): 0.486
Размер потока: 1,34 Гбайт (89%)
Библиотека кодирования: XviD 64

Аудио #1
Идентификатор: 1
Формат: MPEG Audio
Версия формата: Version 1
Профиль формата: Layer 3
Идентификатор кодека: 55
Идентификатор кодека/Подсказка: MP3
Продолжительность: 1 ч. 28 м.
Вид битрейта: Постоянный
Битрейт: 128 Кбит/сек
Каналы: 2 канала
Частота: 48,0 КГц
Метод сжатия: С потерями
Размер потока: 81,2 Мбайт (5%)
Выравнивание: Соединение по промежуткам
Продолжительность промежутка: 42мс. (1,00 видеокадр)
Время предзагрузки промежутка: 504мс.

Аудио #2
Идентификатор: 2
Формат: MPEG Audio
Версия формата: Version 1
Профиль формата: Layer 3
Идентификатор кодека: 55
Идентификатор кодека/Подсказка: MP3
Продолжительность: 1 ч. 28 м.
Вид битрейта: Постоянный
Битрейт: 128 Кбит/сек
Каналы: 2 канала
Частота: 44,1 КГц
Метод сжатия: С потерями
Размер потока: 81,2 Мбайт (5%)
Выравнивание: Разделение по промежуткам
Продолжительность промежутка: 42мс. (1,00 видеокадр)
Время предзагрузки промежутка: 500мс.





реклама партнёра


Вернуться к началу
 Профиль Отправить личное сообщение  
 
   Похожие торренты   Автор   Торрент   Размер 
В этой теме нет новых непрочитанных сообщений. Бедная богатая девочка / Young Adult [драма, комедия, 2011] BDRip-AVC, Dub

salma3

29 | 11

744.09 МБ

В этой теме нет новых непрочитанных сообщений. Город героев  / Big Hero 6 [Мультфильм, Фантастика, Комедия, Семейный, 2014] CAMRip*PROPER*, dub

Dracon

22 | 2

1.37 ГБ

В этой теме нет новых непрочитанных сообщений. Терминатор: Генезис / Terminator: Genisys (Алан Тейлор) [фантастика, боевик, триллер, приключения, 2015] CAMRip*PROPER*, dub

slawa4155

211 | 4

740.53 МБ

В этой теме нет новых непрочитанных сообщений. Заскучавшая девочка [2014 г., All Sex, Oral, Anal, CamRip]

Dievas

11 | 4

305.44 МБ

В этой теме нет новых непрочитанных сообщений. Клевая девочка с приятелем [2015 г., Amateur, All Sex, Home, CamRip]

Dievas

6 | 2

74.68 МБ

В этой теме нет новых непрочитанных сообщений. Девочка бреется в душе [2013 г., Amateur, CamRip 480p]

friizze

3 | 5

32.6 МБ

В этой теме нет новых непрочитанных сообщений. Девочка-умничка [2014 г., Amateur, Blowjob, CamRip 704p]

friizze

6 | 4

665.6 МБ


Начать новую тему Ответить на тему  [ 1 сообщение ] 




Для Мосгорсуда, Роскомнадзора и рекламодателей:: mosgorsud-torrent[собачка]yandex.ru