COVID-19 - Последняя информация о коронавирусе на сайте Минздрава





 [ 1 сообщение ] 
Автор Сообщение

СообщениеДобавлено: 27 май 2019, 20:23 

Не в сети
Супермодератор
Аватара пользователя
Возраст: 30

Спасибо: 8263 / 2148
Сообщения: 96284
Дата регистрации: 15 фев 2012, 16:44
Торренты: 88853
Год выхода: 2017
Жанр: ужасы, фантастика, триллер
Режиссер: Клэй Стауб

В ролях: Майло Вентимилья, Бриджет Риган, Аманда Шулл, Джонатан Фрейкс, Хавьер Ботет, Шон Эшмор, Адам Хертиг, Спенсер Древер, Скотт Джонсон, Уилл Войтович

О фильме:
Агент ФБР Дарина Френсис расследует дело об исчезновении Марии Причард и её сына Джона. Главным подозреваемым становится супруг Марии Джексон Причард, о чем сообщила сестра пропавшей. И действительно, сложно его не заподозрить — мужчина обтянул забор колючей проволокой, заколотил окна, наставил вокруг капканов и прочих страшных ловушек, выглядит и ведёт себя как будто явно не в себе. Прибыв к дому Причардов за 50 миль от города и арестовав Джексона, агент Френсис вместе с местным полицейским Солтером становятся свидетелями странных явлений: все автомобили выходят из строя, телефоны не включаются, и вдруг начинается жуткая гроза. Похоже, им придется провести ночь в доме наедине с задержанным.



Страна: Канада, США
Продолжительность: 01:34:14
Перевод: Профессиональный (многоголосый,закадровый) Jaskier

Файл
Формат: Matroska
Качество: BDRip-AVC | [Devils.Gate.2017.1080p.BluRay.REMUX.ZGV]
Видео: 1044x436 at 23.976 fps, x264, ~2928 kbps (0.268 bit/pixel)
Аудио: AC3, 48 KHz, 6 ch, 384 Kbps

***Релиз от: -=DoMiNo=-



x264 info: frame I:1109 Avg QP:11.10 size: 83807
x264 info: frame P:28970 Avg QP:14.09 size: 30428
x264 info: frame B:105527 Avg QP:15.36 size: 10357
x264 info: consecutive B-frames: 3.3% 2.6% 7.0% 12.0% 19.0% 37.6% 7.2% 2.5% 2.1% 1.3% 1.3% 1.4% 2.7%

General
Unique ID : 202829384813473314597168393296607803207 (0x989784C1C002A01336338C5550517747)
Complete name : Дьявольские врата.(2017).BDDRip-AVC.[-=DoMiNo=-].mkv
Format : Matroska
Format version : Version 4
File size : 2.18 GiB
Duration : 1 h 34 min
Overall bit rate : 3 312 kb/s
Movie name : Дьявольские врата
Deion : Агент ФБР расследует таинственное исчезновение матери и сына в небольшом городке Северной Дакоты. Когда ее расследование сосредотачивается на муже и отце пропавших, она узнает страшный секрет, который скрывала эта семья поколениями.
Attachments : poster
ACTORS : Milo Ventimiglia, Bridget Regan, Amanda Schull, Shawn Ashmore, Jonathan Frakes, Javier Botet, Spencer Drever, Adam Hurtig, Beverly Ndukwu, Sarah Constible, Will Woytowich, Jan Skene, Muriel Hogue, Jeff Strome, Marilyn Norry
COMPOSER : Keefus Ciancia
COUNTRY : United States, Canada
DATE : 2017-04-24
DIRECTOR : Clay Staub
GENRE : Триллер, Ужасы, Фантастика
ORIGINAL_TITLE : Devil's Gate
PRODUCER : Valérie d'Auteuil, Ian Dimerman, Scott Mednick, André Rouleau, Brendon Sawatzky
PUBLISHER : Mednick Productions, Caramel Films, IFC Midnight
RATING : 4.80

Video
ID : 1
Format : AVC
Format/Info : Advanced Video Codec
Format profile : High@L4.1
Format settings : CABAC / 16 Ref Frames
Format settings, CABAC : Yes
Format settings, Reference : 16 frames
Codec ID : V_MPEG4/ISO/AVC
Duration : 1 h 34 min
Bit rate : 2 928 kb/s
Width : 1 044 pixels
Height : 436 pixels
Display aspect ratio : 2.40:1
Frame rate mode : Constant
Frame rate : 23.976 (24000/1001) FPS
Color space : YUV
Chroma subsampling : 4:2:0
Bit depth : 8 bits
Scan type : Progressive
Bits/(Pixel*Frame) : 0.268
Stream size : 1.88 GiB (86%)
Title : RIP_BY_-=DoMiNo=-
Writing library : x264 core 157 r2969 d4099dd
Encoding settings : cabac=1 / ref=16 / deblock=1:-3:-3 / analyse=0x3:0x133 / me=umh / subme=11 / psy=1 / psy_rd=1.05:0.15 / mixed_ref=1 / me_range=48 / chroma_me=1 / trellis=2 / 8x8dct=1 / cqm=0 / deadzone=21,11 / fast_pskip=0 / chroma_qp_offset=-3 / threads=6 / lookahead_threads=1 / sliced_threads=0 / nr=0 / decimate=0 / interlaced=0 / bluray_compat=0 / constrained_intra=0 / bframes=12 / b_pyramid=2 / b_adapt=2 / b_bias=0 / direct=3 / weightb=1 / open_gop=0 / weightp=2 / keyint=250 / keyint_min=24 / scenecut=40 / intra_refresh=0 / rc=2pass / mbtree=0 / bitrate=2928 / ratetol=1.0 / qcomp=0.70 / qpmin=0 / qpmax=69 / qpstep=4 / cplxblur=20.0 / qblur=0.5 / ip_ratio=1.40 / pb_ratio=1.30 / aq=3:0.80
Language : English
Default : Yes
Forced : No

Audio
ID : 2
Format : AC-3
Format/Info : Audio Coding 3
Commercial name : Dolby Digital
Codec ID : A_AC3
Duration : 1 h 34 min
Bit rate mode : Constant
Bit rate : 384 kb/s
Channel(s) : 6 channels
Channel layout : L R C LFE Ls Rs
Sampling rate : 48.0 kHz
Frame rate : 31.250 FPS (1536 SPF)
Bit depth : 16 bits
Compression mode : Lossy
Stream size : 259 MiB (12%)
Title : MVO (Jaskier)
Language : Russian
Service kind : Complete Main
Default : Yes
Forced : No

Menu
00:00:00.000 : :Chapter 01
00:07:25.528 : :Chapter 02
00:16:18.394 : :Chapter 03
00:22:51.328 : :Chapter 04
00:29:33.188 : :Chapter 05
00:35:39.512 : :Chapter 06
00:43:16.594 : :Chapter 07
00:50:21.018 : :Chapter 08
00:57:24.732 : :Chapter 09
01:09:07.518 : :Chapter 10
01:16:25.038 : :Chapter 11
01:25:19.614 : :Chapter 12
01:34:14.315 : :Chapter 13



_________________
Проголосуй за трекер Открытый торрент трекер - RUS-MEDIA.ORG

Проголосуй Открытый торрент трекер - RUS-MEDIA.ORG


Вернуться к началу
 Профиль Отправить личное сообщение  
 
 [ 1 сообщение ] 
   Похожие темы   Автор   Ответы   Просмотры 
В этой теме нет новых непрочитанных сообщений. Дьявольские врата / Devil's Gate [ужасы, фантастика, триллер, 2017] BDRip-AVC, Mvo [Jaskier]

salma3

121

В этой теме нет новых непрочитанных сообщений. Дьявольские врата / Devil's Gate [ужасы, фантастика, триллер, 2017] WEB-DLRip, Mvo [Jaskier]

salma3

426

В этой теме нет новых непрочитанных сообщений. Дьявольские врата / Devil's Gate [Ужасы, фантастика, триллер, 2017] BDRemux 1080p, Mvo [Jaskier]

salma3

254

В этой теме нет новых непрочитанных сообщений. Дьявольские врата / Devil's Gate [ужасы, фантастика, триллер, 2017] BDRip, Avo

salma3

118

В этой теме нет новых непрочитанных сообщений. Врата рая / Небесные врата / Heaven's Gate [драма, вестерн, исторический, 1980] BDRip 720p, Mvo [Full version]

salma3

239

В этой теме нет новых непрочитанных сообщений. Врата рая / Небесные врата / Heaven's Gate [драма, вестерн, исторический, 1980] BDRemux 1080p, Mvo [Full version]

salma3

207

В этой теме нет новых непрочитанных сообщений. Врата 2: Нарушители / The Gate II: Trespassers [ужасы, фэнтези, комедия, 1990] BDRip, Avo

salma3

630





Перейти:  

Для Мосгорсуда, Роскомнадзора и рекламодателей:: rstracker[собака]yandex.ru